<?xml version="1.0" standalone="no"?>
<!DOCTYPE svg PUBLIC "-//W3C//DTD SVG 1.1//EN" "http://www.w3.org/Graphics/SVG/1.1/DTD/svg11.dtd">
<svg xmlns="http://www.w3.org/2000/svg">
<metadata>Copyright (C) 2018 by original authors @ fontello.com</metadata>
<defs>
<font id="fontello" horiz-adv-x="1000" >
<font-face font-family="fontello" font-weight="400" font-stretch="normal" units-per-em="1000" ascent="850" descent="-150" />
<missing-glyph horiz-adv-x="1000" />
<glyph glyph-name="001-credit-card-1" unicode="&#xe800;" d="M305 38c-11 0-20-9-20-20 0-11 9-20 20-20s19 9 19 20c0 11-8 20-19 20z m539 351c-24 0-44-10-59-26-14 16-35 26-58 26-43 0-79-35-79-78 0-43 36-78 79-78 23 0 44 10 58 26 15-16 35-26 59-26 43 0 78 35 78 78 0 43-35 78-78 78z m-117-117c-22 0-39 17-39 39s17 39 39 39 39-17 39-39-18-39-39-39z m117 0c-22 0-39 17-39 39s17 39 39 39 39-17 39-39-18-39-39-39z m97 195h-97v293c0 33-26 59-59 59h-726c-33 0-59-26-59-59v-469c0-32 26-58 59-58h109v-293c0-33 26-59 59-59h714c33 0 59 26 59 59v469c0 32-26 58-59 58z m-902 293c0 11 9 20 20 20h726c11 0 20-9 20-20v-58h-766v58z m0-97h766v-79h-766v79z m129-254v-137h-109c-11 0-20 9-20 19v254h766v-78h-578c-33 0-59-26-59-58z m793-469c0-11-9-20-20-20h-714c-11 0-20 9-20 20v469c0 10 9 19 20 19h714c11 0 20-9 20-19v-469z m-455 430h-201c-11 0-20-9-20-20v-78c0-11 9-20 20-20h201c11 0 19 9 19 20v78c0 11-8 20-19 20z m-20-79h-162v40h162v-40z m-97-136h-84c-11 0-20-9-20-20 0-11 9-19 20-19h84c11 0 19 8 19 19 0 11-8 20-19 20z m156 0h-78c-11 0-20-9-20-20 0-11 9-19 20-19h78c11 0 20 8 20 19 0 11-9 20-20 20z m45-117h-201c-11 0-20-9-20-20 0-11 9-20 20-20h201c11 0 19 9 19 20 0 11-8 20-19 20z m117 117h-78c-11 0-20-9-20-20 0-11 9-19 20-19h78c11 0 20 8 20 19 0 11-9 20-20 20z m156 0h-78c-11 0-19-9-19-20 0-11 8-19 19-19h78c11 0 20 8 20 19 0 11-9 20-20 20z" horiz-adv-x="1000" />

<glyph glyph-name="002-labyrinth" unicode="&#xe801;" d="M813 604c-11 0-20-9-20-20s9-19 20-19c10 0 19 9 19 19s-9 20-19 20z m-547-547c-11 0-20-9-20-19 0-11 9-20 20-20s19 9 19 20c0 10-9 19-19 19z m273 313h-19v78h19c11 0 20-9 20-20 0-11 8-19 19-19 11 0 20 8 20 19 0 32-27 59-59 59h-19v19c0 11-9 20-20 20-11 0-19-9-19-20v-19h-20c-32 0-59-27-59-59v-39c0-32 27-58 59-58h20v-79h-20c-11 0-20 9-20 20 0 11-8 19-19 19-11 0-20-8-20-19 0-32 27-59 59-59h20v-19c0-11 8-20 19-20 11 0 20 9 20 20v19h19c32 0 59 27 59 59v39c0 32-27 59-59 59z m-58 0h-20c-11 0-20 8-20 19v39c0 11 9 20 20 20h20v-78z m78-98c0-11-9-20-20-20h-19v79h19c11 0 20-9 20-20v-39z m357 78c0 11-9 20-19 20-11 0-20-9-20-20 0-6 0-13-1-19h-45c1 6 1 13 1 19 0 122-67 234-174 292-10 5-22 2-27-8-5-9-1-21 8-26 95-52 154-150 154-258 0-12-1-25-2-37-7-55-30-107-66-150-7-9-6-21 2-28 4-3 9-4 13-4 6 0 11 2 15 7 37 44 62 97 72 153h45c-26-157-155-287-313-313v45c11 2 21 5 32 8 11 3 17 14 14 24-3 10-14 16-25 13-26-7-53-11-80-11-161 0-293 132-293 293 0 11-9 20-19 20-11 0-20-9-20-20 0-183 149-332 332-332 7 0 13 0 20 1v-45c-7-1-13-1-20-1-49 0-102 14-162 43-9 5-21 1-26-9-4-10 0-21 9-26 65-32 124-47 179-47 13 0 27 1 40 2 1 0 1 0 2 0 94 10 183 53 251 121 68 68 110 156 121 249 0 2 0 3 0 5 0 0 0 1 0 1 1 13 2 25 2 38z m-11 288c-59 81-141 145-233 180-2 1-4 2-6 3-2 1-3 1-5 1-52 19-106 28-161 28-66 0-130-14-192-40-59-26-113-62-159-109-46-46-83-100-109-159-26-61-40-126-40-192s14-130 40-192c26-59 63-113 109-159 46-47 100-83 159-109 62-26 126-40 192-40s131 14 192 40c59 26 113 62 159 109s83 100 109 159c26 62 40 126 40 192 0 103-33 202-95 288z m-405-749c-230 0-427 179-457 402h46c9-50 29-101 60-153 3-6 10-9 17-9 3 0 6 1 10 3 9 5 12 17 6 27-39 65-59 129-59 191 0 113 58 224 154 297 9 6 11 19 4 27-6 9-18 11-27 4-106-80-170-203-170-328 0-6 0-13 1-19h-45c-1 6-1 13-1 19 0 250 211 461 461 461 46 0 91-7 136-22l-14-44c-40 14-81 21-122 21-11 0-19-9-19-19s8-20 19-20c82 0 167-33 238-93 4-3 8-4 13-4 5 0 11 2 15 7 7 8 6 20-3 27-32 28-68 50-105 67l14 45c171-72 289-245 289-426 0-250-211-461-461-461z m0 793c-63 0-125-18-178-52-52-33-93-79-120-135-5-9-1-21 9-26 2-1 5-2 8-2 7 0 14 4 18 11 49 100 152 165 263 165 11 0 20 9 20 20 0 10-9 19-20 19z m0-78c-140 0-254-114-254-254s114-254 254-254 254 114 254 254-114 254-254 254z m0-469c-118 0-215 97-215 215s97 215 215 215 215-96 215-215-96-215-215-215z" horiz-adv-x="1000" />

<glyph glyph-name="003-id-card" unicode="&#xe802;" d="M857 38c-10 0-19-9-19-20 0-11 9-20 19-20 11 0 20 9 20 20 0 11-9 20-20 20z m-123 0c-10 0-19-9-19-20 0-11 9-20 19-20 11 0 20 9 20 20 0 11-9 20-20 20z m-117 351c-11 0-19-9-19-19s8-20 19-20c11 0 20 9 20 20s-9 19-20 19z m0-351c-11 0-19-9-19-20 0-11 8-20 19-20 11 0 20 9 20 20 0 11-9 20-20 20z m-117 703c-11 0-19-9-19-20s8-19 19-19 20 8 20 19-9 20-20 20z m357-352h-162c-10 0-19-9-19-19 0-11 9-20 19-20h162c11 0 20 9 20 20 0 10-9 19-20 19z m0-117h-240c-11 0-19-9-19-20 0-10 8-19 19-19h240c11 0 20 9 20 19 0 11-9 20-20 20z m0-117h-240c-11 0-19-9-19-20 0-11 8-19 19-19h240c11 0 20 8 20 19 0 11-9 20-20 20z m84 508h-343v58c0 26-10 51-29 69-18 19-43 29-69 29-54 0-98-44-98-98v-58h-343c-33 0-59-27-59-59v-664c0-33 26-59 59-59h882c33 0 59 26 59 59v664c0 32-26 59-59 59z m-500 58c0 32 27 59 59 59 16 0 30-6 41-17 12-12 18-26 18-42v-98h-118v98z m520-781c0-11-9-20-20-20h-882c-11 0-20 9-20 20v527h922v-527z m0 566h-922v98c0 11 9 19 20 19h343v-19c0-11 9-20 20-20h156c11 0 20 9 20 20v19h343c11 0 20-8 20-19v-98z m-500-78h-324c-33 0-59-26-59-58v-313c0-32 26-59 59-59h45 234 45c32 0 59 27 59 59v313c0 32-27 58-59 58z m-64-390h-196v19c0 54 44 98 98 98 26 0 50-10 69-29 18-18 29-43 29-69v-19z m-157 214c0 33 27 59 59 59s58-26 58-59-26-58-58-58-59 26-59 58z m241-195c0-11-9-19-20-19h-25v19c0 37-15 71-40 97-10 10-22 18-34 24 21 18 35 45 35 74 0 54-44 98-98 98s-98-44-98-98c0-29 14-56 35-74-44-23-74-68-74-121v-19h-25c-11 0-20 8-20 19v313c0 10 9 19 20 19h324c11 0 20-9 20-19v-313z" horiz-adv-x="1000" />

<glyph glyph-name="004-credit-card" unicode="&#xe803;" d="M98 565c-11 0-20-9-20-20s9-19 20-19 19 9 19 19-9 20-19 20z m258 0h-180c-11 0-20-9-20-20 0-10 9-19 20-19h180c10 0 19 9 19 19 0 11-9 20-19 20z m0-78h-258c-11 0-20-9-20-20 0-11 9-19 20-19h258c10 0 19 8 19 19 0 11-9 20-19 20z m605-199v82c0 62-24 121-69 165-34 35-79 58-126 66v190c0 33-27 59-59 59h-648c-33 0-59-26-59-59v-402c0-32 26-58 59-58h433v-43c-22-8-39-30-39-55v-324c0-33 26-59 59-59h429c33 0 59 26 59 59v324c0 25-16 47-39 55z m-96 220c37-37 57-86 57-138v-79h-39v79c0 76-57 143-133 154 0 0 0 0 0 0 0 0-1 0-1 0 0 0 0 0-1 0 0 0 0 0 0 0-7 1-14 2-21 2-87 0-157-70-157-156v-79h-39v79c0 31 7 60 21 88 15 28 36 53 62 71 33 24 72 36 113 36 6 0 11 0 17-1 46-4 88-24 121-56z m-158-177c32 0 59 26 59 58v91c45-16 78-60 78-110v-79h-235v40h98z m-98 39c0 64 53 117 118 117v-98c0-11-9-19-20-19h-98z m-85 117h-71v39h99c-11-12-20-25-28-39z m-485 304c0 11 9 20 20 20h648c11 0 20-9 20-20v-19h-688v19z m0-58h688v-45h-688v45z m20-363c-11 0-20 8-20 19v260h688v-45c-47 0-91-14-130-39h-163c-11 0-20-9-20-20v-78c0-11 9-19 20-19h72c-9-25-14-51-14-78h-433z m902-461c0-11-9-20-20-20h-429c-11 0-20 9-20 20v324c0 11 9 19 20 19h429c11 0 20-8 20-19v-324z m-174 176c11 14 18 32 18 50 0 43-35 78-78 78-43 0-79-35-79-78 0-18 7-36 18-50l-17-89c-1-5 0-11 4-16s9-7 15-7h117c6 0 12 3 15 7 4 5 6 11 4 16l-17 89z m-40 3l14-76h-69l15 76c1 7-1 13-6 18-9 7-13 18-13 29 0 22 17 39 39 39s39-17 39-39c0-11-5-22-13-29-5-5-8-11-6-18z" horiz-adv-x="1000" />

<glyph glyph-name="005-plant" unicode="&#xe804;" d="M422 96c-11 0-20-9-20-19 0-11 9-20 20-20s19 9 19 20c0 10-8 19-19 19z m78 559c-11 0-19 8-19 19s8 20 19 20c7 0 14-4 21-10 8-8 20-8 28 0 7 8 7 20-1 28-10 9-19 15-28 18v22c0 11-9 20-20 20s-19-9-19-20v-22c-23-9-40-30-40-56 0-32 27-58 59-58 11 0 20-9 20-20s-9-19-20-19c-8 0-17 5-25 14-7 9-20 10-28 3-8-7-9-19-2-28 10-12 23-21 36-25v-23c0-11 8-20 19-20 11 0 20 9 20 20v23c22 8 39 30 39 55 0 32-27 59-59 59z m215-403h-98c12 17 20 37 20 59v39c0 11-9 20-20 20h-39c-22 0-42-8-58-20v71c109 10 195 102 195 214 0 119-96 215-215 215s-215-96-215-215c0-112 86-204 196-214v-71c-17 12-37 20-59 20h-39c-11 0-20-9-20-20v-39c0-22 8-42 20-59h-98c-15 0-30-6-41-17-11-11-17-26-17-41 0-33 26-59 58-59h3l32-235c4-28 29-50 58-50h244c29 0 54 22 58 50l32 235h3c16 0 30 6 41 17 11 11 17 26 17 42 0 32-26 58-58 58z m-137 79h20v-20c0-32-27-59-59-59h-19v20c0 32 26 59 58 59z m-254 304c0 97 79 176 176 176 97 0 176-79 176-176s-79-176-176-176c-97 0-176 79-176 176z m78-304h20c32 0 59-27 59-59v-20h-20c-32 0-59 27-59 59v20z m240-425c-2-10-10-17-20-17h-244c-10 0-18 7-20 17l-31 229h346l-31-229z m87 274c-4-4-9-6-14-6h-430c-11 0-19 9-19 20 0 5 2 10 5 14 4 3 9 5 14 5h176 39 39 176c11 0 19-8 19-19 0-5-2-10-5-14z m-112-84h-117c-11 0-19-9-19-19 0-11 8-20 19-20h117c11 0 20 9 20 20 0 10-9 19-20 19z" horiz-adv-x="1000" />

<glyph glyph-name="006-printer" unicode="&#xe805;" d="M584 454c-11 0-19-9-19-20s8-19 19-19c11 0 20 8 20 19s-9 20-20 20z m357 78h-44-20v64c0 32-26 59-59 59h-19v176c0 10-9 19-20 19h-402c-1 0-1 0-2 0 0 0-1 0-1 0-1 0-1 0-1 0 0 0-1-1-1-1-1 0-1 0-1 0 0 0-1 0-1 0 0 0 0 0 0 0-1-1-1-1-2-1 0 0 0 0 0 0-1 0-1-1-1-1-1 0-1 0-1 0 0 0-1-1-1-1 0 0 0 0 0 0-1-1-1-1-1-1-1 0-1-1-1-1l-156-156c0 0 0 0 0 0-1-1-1-1-1-1 0 0-1-1-1-1 0 0 0-1 0-1-1 0-1 0-1 0 0-1 0-1 0-2-1 0-1 0-1 0 0 0 0-1 0-1 0 0 0 0 0 0-1-1-1-1-1-2 0 0 0 0 0 0 0-1 0-1 0-2 0 0 0 0 0 0-1-1-1-1-1-2 0 0 0-1 0-2v-19h-19c-33 0-59-27-59-59v-64h-19-45c-33 0-59-27-59-59v-402c0-33 26-59 59-59h142v-143c0-10 9-19 20-19h558c11 0 20 9 20 19v143h142c33 0 59 26 59 59v402c0 32-26 59-59 59z m-142 84h19c11 0 20-9 20-20v-64h-39v84z m-442 167v-89h-89l89 89z m-117-128h137c11 0 20 8 20 19v137h363v-279h-520v123z m-78-59c0 11 9 20 20 20h19v-84h-39v64z m-39-103h754v-98c0-11-9-20-20-20h-714c-11 0-20 9-20 20v98z m637-604h-520v201h520v-201z m201 182c0-11-9-20-20-20h-142v39h19c11 0 20 9 20 20 0 11-9 19-20 19h-636c-11 0-20-8-20-19 0-11 9-20 20-20h19v-39h-142c-11 0-20 9-20 20v146h922v-146z m0 185h-922v217c0 11 9 20 20 20h25v-98c0-32 26-59 59-59h714c33 0 59 27 59 59v98h25c11 0 20-9 20-20v-217z m-299-244h-324c-11 0-20-9-20-19 0-11 9-20 20-20h324c11 0 20 9 20 20 0 10-9 19-20 19z m117 442h-117c-11 0-19-9-19-20 0-11 8-19 19-19h117c11 0 20 8 20 19 0 11-9 20-20 20z" horiz-adv-x="1000" />

<glyph glyph-name="007-contract" unicode="&#xe806;" d="M293 481c-11 0-20-9-20-20s9-19 20-19 20 9 20 19-9 20-20 20z m688-475h-71v746c0 54-44 98-97 98h-715c-54 0-98-44-98-98v-78c0-11 9-19 20-19h136v-707c0-54 44-98 98-98h648c54 0 98 44 98 98v39c0 10-9 19-19 19z m-825 688h-117v58c0 33 26 59 59 59 15 0 30-6 41-17 11-11 17-26 17-42v-58z m157-707v-39c0-33-27-59-59-59s-59 26-59 59v726 78c0 22-7 42-19 59h637c32 0 58-26 58-59v-746h-78v69c25 22 39 54 39 88 0 64-52 117-117 117-35 0-66-15-87-39h-335c-11 0-20-9-20-20 0-11 9-19 20-19h311c-4-13-6-26-6-39 0-14 2-27 6-40h-311c-11 0-20-8-20-19 0-11 9-20 20-20h324c3 0 6 1 9 2 3-4 7-7 11-11v-69h-305c-11 0-19-9-19-19z m402 97c-17 0-33 6-47 16 0 0 0 0 0 0-20 15-31 38-31 63 0 43 35 78 78 78 43 0 78-35 78-78 0-25-11-48-31-63-14-10-30-16-47-16z m39-32v-90l-28 19c-7 4-15 4-22 0l-28-19v90c12-4 25-7 39-7 13 0 27 3 39 7z m207-104c0-33-26-59-59-59h-570c12 16 20 37 20 59v19h285v-41c0-7 4-14 10-17 6-4 14-3 20 1l48 31 48-31c3-3 7-4 10-4 4 0 7 1 10 3 6 3 10 10 10 17v41h168v-19z m-344 785h-207c-11 0-19-9-19-20 0-10 8-19 19-19h207c11 0 20 9 20 19 0 11-9 20-20 20z m156-252h-402c-11 0-19-9-19-20 0-10 8-19 19-19h402c11 0 20 9 20 19 0 11-9 20-20 20z m0-123h-480c-11 0-20-9-20-20 0-10 9-19 20-19h480c11 0 20 9 20 19 0 11-9 20-20 20z m0 252h-480c-11 0-20-9-20-20 0-11 9-19 20-19h480c11 0 20 8 20 19 0 11-9 20-20 20z" horiz-adv-x="1000" />

<glyph glyph-name="008-cashier" unicode="&#xe807;" d="M227 467c-11 0-20-9-20-19s9-20 20-20 19 9 19 20-9 19-19 19z m0-260h-79c-10 0-19-8-19-19v-78c0-11 9-20 19-20h79c10 0 19 9 19 20v78c0 11-9 19-19 19z m-20-78h-39v39h39v-39z m20-78h-79c-10 0-19-9-19-19v-79c0-10 9-19 19-19h79c10 0 19 9 19 19v79c0 10-9 19-19 19z m-20-78h-39v39h39v-39z m176 234h-78c-11 0-20-8-20-19v-78c0-11 9-20 20-20h78c11 0 19 9 19 20v78c0 11-8 19-19 19z m-20-78h-39v39h39v-39z m20-78h-78c-11 0-20-9-20-19v-79c0-10 9-19 20-19h78c11 0 19 9 19 19v79c0 10-8 19-19 19z m-20-78h-39v39h39v-39z m176 234h-78c-11 0-20-8-20-19v-78c0-11 9-20 20-20h78c11 0 20 9 20 20v78c0 11-9 19-20 19z m-19-78h-39v39h39v-39z m19-78h-78c-11 0-20-9-20-19v-79c0-10 9-19 20-19h78c11 0 20 9 20 19v79c0 10-9 19-20 19z m-19-78h-39v39h39v-39z m19 592h-391c-10 0-19-9-19-20v-195c0-11 9-19 19-19h391c11 0 20 8 20 19v195c0 11-9 20-20 20z m-19-195h-352v156h352v-156z m-59 97h-156c-11 0-20-9-20-19 0-11 9-20 20-20h156c11 0 20 9 20 20 0 10-9 19-20 19z m-39 299h-156c-11 0-20-9-20-19s9-20 20-20h156c11 0 19 9 19 20s-8 19-19 19z m469-201h-254v103c0 54-44 98-98 98h-19v65c0 10-9 19-20 19h-312c-11 0-20-9-20-19v-65h-20c-53 0-97-44-97-98v-720c0-54 44-98 97-98h391c54 0 98 44 98 98v181h254c32 0 58 27 58 59v318c0 33-26 59-58 59z m-684 246h274v-168h-274v168z m391-863c0-33-27-59-59-59h-391c-32 0-58 26-58 59v306h508v-306z m0 345h-508v375c0 33 26 59 58 59h20v-84h-20c-10 0-19-9-19-20 0-10 9-19 19-19h40 312 39c11 0 20 9 20 19 0 11-9 20-20 20h-19v84h19c32 0 59-26 59-59v-375z m312-105c0-11-9-20-19-20h-254v202h273v-182z m0 221h-273v39h273v-39z m0 78h-273v39h254c10 0 19-9 19-20v-19z m-97-156c-15 0-29-6-40-15-10 9-24 15-39 15-32 0-58-27-58-59s26-59 58-59c15 0 29 6 39 15 11-9 25-15 40-15 32 0 58 27 58 59s-26 59-58 59z m-79-79c-10 0-19 9-19 20 0 11 9 19 19 19 11 0 20-8 20-19 0-11-9-20-20-20z m79 0c-11 0-20 9-20 20 0 11 9 19 20 19 10 0 19-8 19-19 0-11-9-20-19-20z" horiz-adv-x="1000" />

<glyph glyph-name="009-analytics" unicode="&#xe808;" d="M98 168c-11 0-20-8-20-19 0-11 9-20 20-20s19 9 19 20c0 11-9 19-19 19z m765 202c-10 0-19-9-19-20v-162c0-11 9-20 19-20s20 9 20 20v162c0 11-9 20-20 20z m120 301c-7 7-15 12-25 14-5 18-19 32-36 39v67c0 16-6 31-17 42-11 11-26 17-42 17-32 0-58-26-58-59v-67c-23-8-39-30-39-56v-595c0-35 10-68 29-97l49-74 0-32c0-11 8-20 19-20 0 0 0 0 0 0 11 0 20 9 20 19l0 34 48 73c20 29 30 62 30 97v300c23 8 39 30 39 55v201c0 16-6 31-17 42z m-139 120c0 11 9 20 19 20 6 0 10-2 14-6 4-3 6-8 6-14v-64h-39v64z m-39-123c0 11 8 20 19 20h78c6 0 11-2 14-6-14-6-25-18-30-33h-81v19z m0-58h78v-45h-78v45z m117-537c0-27-8-53-23-76l-36-53-35 53c-15 23-23 49-23 76v11h117v-11z m0 50h-117v403h78v-98c0-25 16-47 39-55v-250z m39 305c0-11-9-19-20-19-10 0-19 8-19 19v20h39v-20z m0 59h-39v142c0 11 9 20 19 20 6 0 11-2 14-6 4-4 6-8 6-14v-142z m-293 279h-492c0 0 0 0 0 0-18 24-46 39-78 39-26 0-51-10-69-28-19-19-29-43-29-70v-757c0-1 0-1 0-1 0-17 4-33 12-49 15-30 48-50 85-50h489c31 0 57 25 57 56v22h25c32 0 59 26 59 59v720c0 33-27 59-59 59z m-629-59c0 16 6 31 17 42s26 17 42 17c32 0 58-26 58-59v-681c-16 12-36 19-58 19-22 0-42-7-59-19v681z m565-801c0-9-8-17-18-17h-489c-22 0-42 11-50 28-6 11-8 22-8 32 1 32 27 57 59 57 32 0 58-26 58-58 0-11 9-20 20-20h428v-22z m84 81c0-11-9-20-20-20h-473v760h473c11 0 20-9 20-20v-720z m-590 578c-11 0-20-9-20-20v-318c0-11 9-20 20-20s19 9 19 20v318c0 11-9 20-19 20z m525 0h-369c-11 0-20-9-20-20v-234c0-11 9-20 20-20h369c11 0 20 9 20 20v234c0 11-9 20-20 20z m-19-234h-331v195h331v-195z m-59 318h-207c-11 0-20-9-20-20 0-10 9-19 20-19h207c11 0 20 9 20 19 0 11-9 20-20 20z m-188-201c-10 0-19-9-19-20v-39c0-11 9-19 19-19s20 8 20 19v39c0 11-9 20-20 20z m84 22c-10 0-19-9-19-20v-61c0-11 9-19 19-19s20 8 20 19v61c0 11-9 20-20 20z m79 17c-11 0-20-9-20-20v-78c0-11 9-19 20-19s19 8 19 19v78c0 11-9 20-19 20z m103-280h-369c-11 0-20-8-20-19 0-11 9-20 20-20h369c11 0 20 9 20 20 0 11-9 19-20 19z m0-123h-369c-11 0-20-8-20-19 0-11 9-20 20-20h369c11 0 20 9 20 20 0 11-9 19-20 19z" horiz-adv-x="1000" />

<glyph glyph-name="010-magnifying-glass" unicode="&#xe809;" d="M176 694c-11 0-20-9-20-20s9-19 20-19 19 8 19 19-8 20-19 20z m234-196h-19v79h19c11 0 20-9 20-20 0-11 8-19 19-19s20 8 20 19c0 32-26 59-59 59h-19v19c0 11-9 20-20 20s-19-9-19-20v-19h-20c-32 0-59-27-59-59v-39c0-32 27-59 59-59h20v-78h-20c-11 0-19 9-19 20 0 11-9 19-20 19s-20-8-20-19c0-32 27-59 59-59h20v-19c0-11 8-20 19-20s20 9 20 20v19h19c33 0 59 27 59 59v39c0 32-26 58-59 58z m-58 0h-20c-11 0-19 9-19 20v39c0 11 8 20 19 20h20v-79z m78-97c0-11-9-20-20-20h-19v78h19c11 0 20-8 20-19v-39z m-59 371c-46 0-90-11-132-31-9-5-13-17-8-27 5-9 16-13 26-8 36 18 74 27 114 27 140 0 254-114 254-254s-114-254-254-254-254 114-254 254c0 41 10 81 29 117 5 9 1 21-9 26-9 5-21 1-26-8-21-42-33-88-33-135 0-162 132-293 293-293s293 131 293 293-131 293-293 293z m606-789l-214 213c-1 0-1 0-1 1l-80 79c39 60 60 130 60 203 0 205-166 371-371 371s-371-166-371-371 167-371 371-371c71 0 140 20 200 58l78-77c0-1 1-2 2-3 1-2 2-2 4-3l212-210c14-15 34-23 55-23s40 8 55 23c15 15 23 34 23 55s-8 41-23 55z m-415 224c-56-39-122-60-191-60-183 0-332 149-332 332s149 332 332 332 332-149 332-332c0-71-22-138-63-195-22-30-48-56-78-77z m41-18c20 16 39 35 56 55l62-61-56-56-62 62z m347-289c-8-7-18-11-28-11-11 0-20 4-28 12l-201 199 55 55 202-199c7-8 11-17 11-28s-4-20-11-28z" horiz-adv-x="1000" />

<glyph glyph-name="011-stopwatch" unicode="&#xe80a;" d="M305 436c-11 0-20-9-20-20s9-19 20-19 19 9 19 19-8 20-19 20z m234-195h-19v78h19c11 0 20-9 20-20 0-11 8-19 19-19 11 0 20 8 20 19 0 33-27 59-59 59h-19v19c0 11-9 20-20 20-11 0-19-9-19-20v-19h-20c-32 0-59-26-59-59v-39c0-32 27-58 59-58h20v-79h-20c-11 0-20 9-20 20 0 11-8 20-19 20-11 0-20-9-20-20 0-32 27-59 59-59h20v-19c0-11 8-20 19-20 11 0 20 9 20 20v19h19c32 0 59 27 59 59v39c0 32-27 59-59 59z m-58 0h-20c-11 0-20 8-20 19v39c0 11 9 20 20 20h20v-78z m78-98c0-11-9-20-20-20h-19v79h19c11 0 20-9 20-20v-39z m214 329l45 55c22 22 22 59-1 82-23 23-60 23-83 0 0-1 0-1-1-2l-52-62c-32 18-67 31-103 39v110h59c21 0 40 8 55 23 15 14 23 34 23 55 0 43-35 78-78 78h-274c-21 0-40-8-55-23s-23-34-23-55c0-43 35-78 78-78h59v-110c-36-8-71-21-103-39l-52 62c-1 1-1 1-1 2-23 23-60 23-83 0-23-23-23-60-1-82l45-55c-63-68-98-157-98-251 0-204 166-371 371-371s371 167 371 371c0 94-35 183-98 251z m-10 110c7 7 19 7 27-1 7-8 7-20 0-28-1 0-1 0-2-1l-43-52c-10 8-20 17-31 24l49 58z m-400 151c-21 0-39 17-39 39 0 10 4 20 12 28 7 7 17 11 27 11h274c21 0 39-18 39-39 0-11-4-20-12-28-7-7-17-11-27-11h-78-118-78z m176-39v-102h-78v102h78z m-327-142c-1 1-1 1-2 1-7 8-7 20 0 28 8 8 20 8 28 1l48-58c-11-7-21-16-31-24l-43 52z m288-663c-183 0-332 149-332 332 0 90 35 174 99 236 18 18 37 33 58 46 53 33 113 50 175 50 62 0 122-17 175-50 21-13 41-28 58-46 64-62 99-146 99-236 0-183-149-332-332-332z m0 625c-46 0-91-10-132-31-9-5-13-17-8-26 5-10 16-14 26-9 36 18 74 27 114 27 140 0 254-114 254-254s-114-254-254-254-254 114-254 254c0 41 10 81 29 117 5 9 1 21-9 26-9 5-21 1-26-8-22-41-33-88-33-135 0-161 132-293 293-293s293 132 293 293-131 293-293 293z" horiz-adv-x="1000" />

<glyph glyph-name="012-browser" unicode="&#xe80b;" d="M656 742c-10 0-19-9-19-19s9-20 19-20c11 0 20 9 20 20s-9 19-20 19z m-390 0c-11 0-20-9-20-19s9-20 20-20 19 9 19 20-9 19-19 19z m-84 0c-11 0-20-9-20-19s9-20 20-20 19 9 19 20-9 19-19 19z m-84 0c-11 0-20-9-20-19s9-20 20-20 19 9 19 20-9 19-19 19z m402-508c-11 0-19 9-19 20 0 11 8 19 19 19 7 0 14-3 21-10 8-7 20-7 28 1 7 7 7 20-1 27-10 10-19 15-28 18v23c0 11-9 19-20 19-11 0-19-8-19-19v-23c-23-8-40-30-40-55 0-33 27-59 59-59 11 0 20-9 20-19 0-11-9-20-20-20-8 0-17 5-25 15-7 8-20 9-28 2-8-7-9-19-2-27 10-13 23-21 36-26v-23c0-10 8-19 19-19 11 0 20 9 20 19v23c22 8 39 30 39 56 0 32-27 58-59 58z m184 180l-176 85c-5 3-12 3-17 0l-175-85c-7-3-11-10-11-18v-280c0-27 13-52 36-67 1-1 2-1 2-2l149-71c2-2 5-2 8-2 3 0 6 0 9 2l148 71c1 1 1 1 2 2 23 15 36 40 36 67v280c0 8-4 14-11 18z m-28-298c0-13-6-26-18-34l-138-67-138 67c-12 8-18 21-18 34v268l156 76 156-76v-268z m285 704h-882c-33 0-59-26-59-58v-782c0-32 26-58 59-58h357l75-40c3-1 6-2 9-2s6 1 9 2l76 40h356c33 0 59 26 59 58v782c0 32-26 58-59 58z m-370-862c-1 0-1 0-1 0l-70-37-70 37c0 0 0 0 0 0l-1 0-111 59c-33 22-52 59-52 99v317l234 114 234-114v-317c0-40-19-77-52-99l-111-59z m390 22c0-11-9-19-20-19h-282l42 21c0 1 1 1 1 1 45 30 71 80 71 133v329c0 8-4 14-11 18l-254 123c-5 3-12 3-17 0l-253-123c-7-4-11-10-11-18v-329c0-53 26-103 71-133 0 0 1 0 1-1l42-21h-282c-11 0-20 8-20 19v645h922v-645z m0 684h-922v98c0 10 9 19 20 19h882c11 0 20-9 20-19v-98z m-59 78h-168c-10 0-19-9-19-19s9-20 19-20h168c11 0 20 9 20 20 0 10-9 19-20 19z" horiz-adv-x="1000" />

<glyph glyph-name="013-budget" unicode="&#xe80c;" d="M539 375c-11 0-19-8-19-19s8-20 19-20c11 0 20 9 20 20 0 11-9 19-20 19z m-351 280c-11 0-20 8-20 19s9 20 20 20c6 0 14-4 21-10 7-8 20-8 27 0 8 8 8 20 0 28-10 9-20 15-29 18v22c0 11-9 20-19 20s-20-9-20-20v-22c-23-9-39-30-39-56 0-32 26-58 59-58 10 0 19-9 19-20s-9-19-19-19c-9 0-18 5-26 14-7 9-19 10-27 3-9-7-10-19-3-28 11-12 23-21 36-25v-23c0-11 9-20 20-20s19 9 19 20v23c23 8 39 30 39 55 0 32-26 59-58 59z m351-448h-78c-11 0-20-8-20-19v-78c0-11 9-20 20-20h78c11 0 20 9 20 20v78c0 11-9 19-20 19z m-19-78h-39v39h39v-39z m175 78h-78c-11 0-19-8-19-19v-78c0-11 8-20 19-20h78c11 0 20 9 20 20v78c0 11-9 19-20 19z m-19-78h-39v39h39v-39z m-137-78h-78c-11 0-20-9-20-19v-79c0-10 9-19 20-19h78c11 0 20 9 20 19v79c0 10-9 19-20 19z m-19-78h-39v39h39v-39z m175 78h-78c-11 0-19-9-19-19v-79c0-10 8-19 19-19h78c11 0 20 9 20 19v79c0 10-9 19-20 19z m-19-78h-39v39h39v-39z m176 234h-79c-10 0-19-8-19-19v-235c0-10 9-19 19-19h79c10 0 19 9 19 19v235c0 11-9 19-19 19z m-20-234h-39v195h39v-195z m20 481h-391c-11 0-20-9-20-20v-168c0-11 9-19 20-19h391c10 0 19 8 19 19v168c0 11-9 20-19 20z m-20-168h-351v129h351v-129z m59 252h-176v118c0 15-6 29-17 40l-131 136c-6 6-12 11-20 14 0 0 0 0-1 0 0 0 0 0 0 0-7 3-14 4-21 4h-416c-32 0-58-26-58-59v-759c0-33 26-59 58-59h254v-64c0-33 27-59 59-59h469c32 0 58 26 58 59v570c0 32-26 59-58 59z m-332 247l111-116c4-4 6-8 6-13v-1h-98c-11 0-19 8-19 19v111z m-196-306v-467h-254c-10 0-19 9-19 20v759c0 11 9 20 19 20h411v-137c0-32 26-58 58-58h98v-78h-254c-32 0-59-27-59-59z m547-570c0-11-9-20-19-20h-469c-11 0-20 9-20 20v570c0 11 9 19 20 19h469c10 0 19-8 19-19v-570z m-137 466h-156c-11 0-19-8-19-19 0-11 8-20 19-20h156c11 0 20 9 20 20 0 11-9 19-20 19z m-312 241h-156c-11 0-20-9-20-20 0-11 9-19 20-19h156c11 0 20 8 20 19 0 11-9 20-20 20z m0 78h-156c-11 0-20-9-20-20 0-11 9-19 20-19h156c11 0 20 8 20 19 0 11-9 20-20 20z m-156-240h-157c-10 0-19-9-19-20 0-11 9-19 19-19h157c11 0 19 8 19 19 0 11-8 20-19 20z m-117-79h-40c-10 0-19-8-19-19 0-11 9-20 19-20h40c10 0 19 9 19 20 0 11-9 19-19 19z m117 0h-39c-11 0-20-8-20-19 0-11 9-20 20-20h39c11 0 19 9 19 20 0 11-8 19-19 19z m-117-89h-40c-10 0-19-9-19-20 0-11 9-19 19-19h40c10 0 19 8 19 19 0 11-9 20-19 20z m117 0h-39c-11 0-20-9-20-20 0-11 9-19 20-19h39c11 0 19 8 19 19 0 11-8 20-19 20z m-117-79h-40c-10 0-19-8-19-19 0-11 9-20 19-20h40c10 0 19 9 19 20 0 11-9 19-19 19z m117 0h-39c-11 0-20-8-20-19 0-11 9-20 20-20h39c11 0 19 9 19 20 0 11-8 19-19 19z m-117-78h-40c-10 0-19-8-19-19 0-11 9-20 19-20h40c10 0 19 9 19 20 0 11-9 19-19 19z m117 0h-39c-11 0-20-8-20-19 0-11 9-20 20-20h39c11 0 19 9 19 20 0 11-8 19-19 19z" horiz-adv-x="1000" />

<glyph glyph-name="014-smartphone" unicode="&#xe80d;" d="M539 129c-11 0-19-8-19-19 0-11 8-20 19-20 11 0 20 9 20 20 0 11-9 19-20 19z m156 280h-19v78h19c11 0 20-9 20-20 0-11 9-19 19-19s20 8 20 19c0 33-26 59-59 59h-19v19c0 11-9 20-20 20s-19-9-19-20v-19h-20c-32 0-58-26-58-59v-39c0-32 26-58 58-58h20v-79h-20c-11 0-19 9-19 20 0 11-9 20-20 20s-19-9-19-20c0-32 26-59 58-59h20v-19c0-11 9-20 19-20s20 9 20 20v19h19c33 0 59 27 59 59v39c0 32-26 59-59 59z m-58 0h-20c-11 0-19 8-19 19v39c0 11 8 20 19 20h20v-78z m78-98c0-11-9-20-20-20h-19v79h19c11 0 20-9 20-20v-39z m187 539h-486-396c-11 0-20-9-20-19v-962c0-10 9-19 20-19h396 486c54 0 98 44 98 98v804c0 54-44 98-98 98z m-863-961v922h299c-10-13-16-28-19-45h-215c-11 0-20-9-20-19v-676-118c0-10 9-19 20-19h117 98c3-17 9-32 19-45h-299z m250 510c-8 7-20 7-28-1-9-10-15-19-17-28h-23c-11 0-20-9-20-20 0-11 9-19 20-19h23c8-23 29-40 55-40 7 0 13 2 19 4v-81c-51 3-98 17-135 42-39 26-60 59-60 94 0 35 21 69 60 94 37 25 84 39 135 42v-136c0-11-8-19-19-19-11 0-20 8-20 19 0 7 4 14 11 21 7 8 7 20-1 28z m-166-310v167c11-12 24-23 38-33 43-28 98-45 157-48v-202h-79c-4 29-18 56-39 77-21 21-48 35-77 39z m76-116h-76v76c19-3 36-13 50-26 13-14 23-31 26-50z m-38 504c-14-10-27-21-38-33v167c60 9 107 56 116 116h79v-202c-59-3-114-20-157-48z m-38 174v76h76c-8-38-38-68-76-76z m838-703c0-33-26-59-59-59h-486c-32 0-59 26-59 59v804c0 33 27 59 59 59h486c33 0 59-26 59-59v-804z m-64 779h-481c-11 0-19-9-19-20v-675c0-11 8-20 19-20h481c10 0 19 9 19 20v675c0 11-9 20-19 20z m-20-676h-441v637h441v-637z m-182-78h-78c-11 0-19-9-19-20 0-10 8-19 19-19h78c11 0 20 9 20 19 0 11-9 20-20 20z m85 156h-163c-11 0-19-8-19-19 0-11 8-20 19-20h163c11 0 20 9 20 20 0 11-9 19-20 19z" horiz-adv-x="1000" />

<glyph glyph-name="015-bank-1" unicode="&#xe80e;" d="M383 733c-11 0-20-9-20-20s9-19 20-19 19 9 19 19-8 20-19 20z m117 39c-15 0-30-1-45-4-11-2-18-12-16-23 2-10 12-17 23-16 12 3 25 4 38 4 119 0 215-97 215-215s-96-215-215-215-215 97-215 215c0 46 14 90 41 126 7 9 5 21-4 28-8 6-21 4-27-4-32-44-49-96-49-150 0-140 114-254 254-254s254 114 254 254-114 254-254 254z m39-234h-19v78h19c11 0 20-9 20-20 0-11 8-19 19-19s20 8 20 19c0 32-27 59-59 59h-19v19c0 11-9 20-20 20s-19-9-19-20v-19h-20c-32 0-59-27-59-59v-39c0-32 27-59 59-59h20v-78h-20c-11 0-20 9-20 20 0 11-8 19-19 19s-20-8-20-19c0-32 27-59 59-59h20v-19c0-11 8-20 19-20s20 9 20 20v19h19c32 0 59 27 59 59v39c0 32-27 59-59 59z m-58 0h-20c-11 0-20 8-20 19v39c0 11 9 20 20 20h20v-78z m78-98c0-11-9-20-20-20h-19v78h19c11 0 20-8 20-19v-39z m178-362c-28 18-63 33-103 43l128 193c46 59 70 130 70 204 0 183-149 332-332 332s-332-149-332-332c0-74 24-145 70-204l128-193c-40-10-75-25-102-43-37-25-57-55-57-85 0-40 33-77 92-104 54-25 126-39 201-39 75 0 147 14 202 39 59 27 91 64 91 104 0 30-20 60-56 85z m-467 259c0 0-1 0-1 1-41 52-62 114-62 180 0 162 132 293 293 293s293-131 293-293c0-66-21-128-62-180 0-1 0-1-1-1l-230-348-230 348z m415-413c-50-22-115-35-185-35s-135 13-185 35c-43 20-69 46-69 69 0 32 53 74 143 93l95-143c3-6 9-9 16-9 7 0 13 3 16 9l95 143c90-19 143-61 143-93 0-23-26-49-69-69z" horiz-adv-x="1000" />

<glyph glyph-name="016-presentation" unicode="&#xe80f;" d="M227 565c-11 0-20-9-20-20s9-19 20-19 19 9 19 19-9 20-19 20z m507-117c-10 0-19 8-19 19 0 11 9 20 19 20 7 0 15-4 22-10 7-8 20-8 27 0 8 8 7 20 0 28-10 9-20 15-29 18v22c0 11-9 20-20 20-10 0-19-9-19-20v-23c-23-8-39-29-39-55 0-32 26-58 58-58 11 0 20-9 20-20 0-11-9-19-20-19-8 0-17 5-25 14-7 9-19 10-27 3-9-7-10-20-3-28 11-12 23-21 36-25v-23c0-11 9-20 19-20 11 0 20 9 20 20v23c23 8 39 30 39 55 0 32-26 59-59 59z m207 324h-345c-9 44-49 78-96 78s-87-34-96-78h-345c-33 0-59-26-59-59v-558c0-33 26-59 59-59h166l-88-158c-16-28-7-64 21-80 9-5 19-8 30-8 20 0 39 11 50 29 0 0 0 0 0 0l122 217h81v-187c0-33 27-59 59-59s59 26 59 59v187h79l124-217c0 0 0 0 0-1 11-17 30-28 51-28 10 0 21 3 30 8 27 17 36 53 20 80l-89 158h167c33 0 59 26 59 59v558c0 33-26 59-59 59z m-737-874c-3-5-10-9-16-9-4 0-7 1-10 3-10 5-13 17-7 27 0 0 0 0 0 0l98 177h46l-111-198z m316 11c0-11-9-20-20-20-11 0-19 9-19 20v187h39v-187z m309 10c0 0 0 0 0 0 6-10 3-22-6-27-3-2-7-3-10-3-7 0-14 3-17 9l-113 198h46l100-177z m132 236c0-11-9-20-20-20h-200c0 0 0 0 0 0h-92c0 0 0 0 0 0h-110-78-112c0 0 0 0 0 0h-91c0 0 0 0 0 0h-199c-11 0-20 9-20 20v558c0 11 9 20 20 20h363c11 0 19 9 19 19 0 33 27 59 59 59s59-26 59-59c0-10 8-19 19-19h363c11 0 20-9 20-20v-558z m-64 533h-793c-11 0-20-9-20-20v-474c0-11 9-20 20-20h793c10 0 19 9 19 20v474c0 11-9 20-19 20z m-20-475h-754v436h754v-436z m-299 352h-273c-11 0-20-9-20-20 0-10 9-19 20-19h273c11 0 20 9 20 19 0 11-9 20-20 20z m0-117h-351c-11 0-20-9-20-20 0-11 9-19 20-19h351c11 0 20 8 20 19 0 11-9 20-20 20z m0-117h-351c-11 0-20-9-20-20 0-11 9-20 20-20h351c11 0 20 9 20 20 0 11-9 20-20 20z" horiz-adv-x="1000" />

<glyph glyph-name="017-money-4" unicode="&#xe810;" d="M740 623c-10 0-19-8-19-19 0-11 9-20 19-20 11 0 20 9 20 20s-9 19-20 19z m-402-585c-11 0-20-9-20-20 0-11 9-20 20-20s19 9 19 20c0 11-8 20-19 20z m-78 585c-11 0-20-8-20-19 0-11 9-20 20-20s19 9 19 20-8 19-19 19z m240 0c-11 0-19 9-19 20s8 20 19 20c7 0 14-4 21-11 8-7 20-7 28 1 7 8 7 20-1 27-10 10-19 15-28 18v23c0 11-9 20-20 20-11 0-19-9-19-20v-23c-23-8-40-30-40-55 0-32 27-59 59-59 11 0 20-8 20-19 0-11-9-20-20-20-8 0-17 6-25 15-7 8-20 9-28 3-8-7-9-20-2-28 10-12 23-21 36-25v-23c0-11 8-20 19-20 11 0 20 9 20 20v23c22 8 39 29 39 55 0 32-27 58-59 58z m497-172c-3 8-7 15-12 21-1 0-1 0-1 1l-107 110v216c0 11-9 20-20 20h-714c-11 0-20-9-20-20v-216l-107-110c0-1 0-1 0-1-6-6-10-13-13-21-2-6-3-12-3-19v-474c0-24 11-46 30-61 0 0 0 0 0 0 0 0 0 0 1 0 13-10 29-16 46-16h846c18 0 36 7 50 19 0 0 0 0 0 0 0 0 1 0 1 0 16 15 26 36 26 58v474c0 7-1 13-3 19z m-120-42v118l75-78-75-65v25z m-39 371v-65c-29 13-52 36-65 65h65z m-107 0c17-50 57-90 107-107v-138c-50-17-90-57-107-107h-152c8 8 14 17 21 28 24 40 37 92 37 148s-13 108-37 148c-7 10-13 20-21 28h152z m107-287v-65h-65c13 29 36 52 65 65z m-338 287c53 0 98-81 98-176 0-95-45-176-98-176-53 0-98 81-98 176 0 95 45 176 98 176z m-338 0h65c-13-29-36-52-65-65v65z m0-107c50 17 90 57 107 107h152c-8-8-14-18-21-28-23-40-37-92-37-148s14-108 37-148c7-11 13-20 21-28h-152c-17 50-57 90-107 107v138z m0-180c29-13 52-36 65-65h-65v65z m0-104h93c0 0 0 0 0 0 0 0 0 0 0 0h490c0 0 0 0 0 0 0 0 0 0 0 0h93v-38l-1-1h-674l-1 1v38z m92-117l-45 39h582l-45-39h-492z m446-39l-45-39h-310l-45 39h400z m-577 294v-118-25l-75 65 75 78z m-79-587c-3 6-5 12-5 18v447l270-232-265-233z m879-20h-843l267 235h308l269-235c-1 0-1 0-1 0z m38 38c0-5-1-11-3-15l-266 231 269 231v-447z m-299 80h-240c-11 0-20-9-20-20 0-11 9-20 20-20h240c11 0 20 9 20 20 0 11-9 20-20 20z" horiz-adv-x="1000" />

<glyph glyph-name="018-settings" unicode="&#xe811;" d="M383 565c-11 0-20-9-20-20s9-19 20-19 19 9 19 19-8 20-19 20z m117 117c-183 0-332-149-332-332s149-332 332-332 332 149 332 332-149 332-332 332z m0-625c-161 0-293 132-293 293s132 293 293 293 293-131 293-293-131-293-293-293z m0 547c-15 0-30-1-45-4-11-2-18-12-16-23 2-10 12-17 23-16 12 3 25 4 38 4 119 0 215-96 215-215s-96-215-215-215-215 97-215 215c0 46 14 90 41 127 7 8 5 20-4 27-8 6-21 4-27-4-32-44-49-96-49-150 0-140 114-254 254-254 140 0 254 114 254 254s-114 254-254 254z m39-234h-19v78h19c11 0 20-9 20-20 0-11 8-19 19-19 11 0 20 8 20 19 0 32-27 59-59 59h-19v19c0 11-9 20-20 20-11 0-19-9-19-20v-19h-20c-32 0-59-27-59-59v-39c0-32 27-58 59-58h20v-79h-20c-11 0-20 9-20 20 0 11-8 19-19 19s-20-8-20-19c0-32 27-59 59-59h20v-19c0-11 8-20 19-20 11 0 20 9 20 20v19h19c32 0 59 27 59 59v39c0 32-27 59-59 59z m-58 0h-20c-11 0-20 8-20 19v39c0 11 9 20 20 20h20v-78z m78-98c0-11-9-20-20-20h-19v79h19c11 0 20-9 20-20v-39z m426 156l-84 18c-10 43-27 83-50 120l39 64c4 8 3 18-3 24l-83 83c-6 6-16 7-24 3l-64-39c-37 23-77 40-120 50l-18 84c-2 9-10 15-19 15h-118c-9 0-17-6-19-15l-18-84c-42-10-83-27-120-50l-64 39c-8 4-17 3-24-3l-83-83c-6-6-7-16-3-24l39-64c-23-37-40-77-49-120l-85-18c-9-2-15-10-15-19v-118c0-9 6-17 15-19l85-18c11-42 27-82 50-118l-40-66c-4-8-3-17 3-24l83-83c7-6 16-7 24-3l67 40c36-22 75-38 116-48l19-87c2-9 10-15 19-15h118c9 0 17 6 19 15l19 87c41 10 80 26 116 48l67-40c8-4 18-3 24 3l83 83c6 7 7 16 3 24l-40 66c23 36 40 76 50 118l85 18c9 2 15 10 15 19v118c0 9-6 17-15 19z m-24-121l-82-18c-7-1-13-7-15-15-9-46-27-89-53-127-4-6-4-15 0-21l37-63-61-61-64 38c-6 4-14 4-20 0-39-25-82-43-126-52-8-2-14-7-16-15l-18-84h-86l-18 84c-2 8-8 13-16 15-44 9-87 27-125 52-7 4-15 4-21 0l-64-38-61 61 37 63c4 6 4 15 0 21-26 38-44 81-53 127-2 8-8 14-15 15l-82 18v86l81 18c8 1 14 7 15 15 9 46 27 89 53 129 4 6 5 14 1 21l-37 61 61 61 62-37c6-3 14-3 20 1 40 26 83 44 129 53 8 2 14 7 15 15l18 81h86l18-81c1-8 7-13 15-15 46-9 89-27 129-53 6-4 14-4 21-1l61 37 61-61-37-61c-3-7-3-15 1-21 26-40 44-83 53-129 2-8 7-14 15-15l81-18v-86z" horiz-adv-x="1000" />

<glyph glyph-name="019-banking-1" unicode="&#xe812;" d="M188 252c-11 0-20-8-20-19 0-11 9-20 20-20s19 9 19 20c0 11-9 19-19 19z m429 79h-19v78h19c11 0 20-9 20-20 0-11 9-19 19-19s20 8 20 19c0 32-26 59-59 59h-19v19c0 11-9 20-20 20s-19-9-19-20v-19h-20c-32 0-58-27-58-59v-39c0-32 26-59 58-59h20v-78h-20c-11 0-19 9-19 20 0 11-9 19-20 19s-19-8-19-19c0-32 26-59 58-59h20v-19c0-11 8-20 19-20s20 9 20 20v19h19c33 0 59 27 59 59v39c0 32-26 59-59 59z m-58 0h-20c-11 0-19 8-19 19v39c0 11 8 20 19 20h20v-78z m78-98c0-11-9-20-20-20h-19v78h19c11 0 20-8 20-19v-39z m271-216c0 0 0 0 0 0 1 1 1 2 1 2 0 0 0 0 0 1 0 0 1 1 1 2 0 0 0 0 0 0 0 1 0 1 0 2 0 0 0 1 0 1 0 0 0 0 0 1v765c0 33-26 59-58 59h-625c-76 0-137-61-137-137v-765c0 0 0 0 0 0 0 0 0 0 0 0 0-54 44-98 98-98h703c6 0 13 3 16 9 4 6 4 13 1 19l-13 26c-13 27-13 60 0 87l13 26z m-779 696c0 54 44 98 98 98h16v-766h-55c-22 0-42-7-59-19v687z m730-824h-671c-33 0-59 26-59 59 0 15 6 30 17 41 11 11 26 17 42 17h671c-17-37-17-80 0-117z m12 156h-589v766h570c10 0 19-9 19-20v-746z m-683 604c-11 0-20-9-20-20v-318c0-11 9-20 20-20s19 9 19 20v318c0 11-9 20-19 20z m585 84h-390c-11 0-20-9-20-20v-162c0-11 9-19 20-19h390c11 0 20 8 20 19v162c0 11-9 20-20 20z m-19-162h-352v123h352v-123z m-59 78h-234c-11 0-20-9-20-20 0-10 9-19 20-19h234c11 0 20 9 20 19 0 11-9 20-20 20z" horiz-adv-x="1000" />

<glyph glyph-name="020-hourglass" unicode="&#xe813;" d="M500 207c-11 0-19-8-19-19 0-11 8-20 19-20s20 9 20 20c0 11-9 19-20 19z m254-201h-2l-16 146c-6 58-34 112-77 151-20 17-41 31-65 41 76 33 132 104 142 190 0 0 0 0 0 0 0 0 0 0 0 0 0 1 0 2 0 2l16 158h2c21 0 40 8 55 23 15 14 23 34 23 55 0 43-35 78-78 78h-508c-21 0-40-8-55-23-15-15-23-34-23-55 0-43 35-78 78-78h2l16-158c0 0 0-1 0-2 0 0 0 0 0 0 0 0 0 0 0 0 11-86 66-157 142-190-77-33-133-104-142-192l-16-146h-2c-21 0-40-8-55-23-15-14-23-34-23-55 0-43 35-78 78-78h508c21 0 40 8 55 23 15 15 23 34 23 55 0 43-35 78-78 78z m-508 727c-21 0-39 17-39 39 0 10 4 20 12 28 7 7 17 11 27 11h508c21 0 39-18 39-39 0-11-4-20-11-28-8-7-18-11-28-11h-20-468-20z m41-39h426l-14-138h-398l-14 138z m20-177h386c-21-89-100-153-193-153-93 0-172 64-193 153z m-4-369c10 94 85 167 178 176v-58c0-11 8-19 19-19s20 8 20 19v58c41-4 81-22 113-50 36-33 59-77 65-126l13-127-192 104c-1 0-3 1-5 1-9 3-19 3-29 0-1 0-3-1-4-2l-192-103 14 127z m354-142h-314l154 83c2 0 4 0 6 0l154-83z m125-106c-8-7-18-11-28-11h-508c-21 0-39 18-39 39 0 11 4 20 12 28 7 7 17 11 27 11h20c0 0 0 0 0 0h0 468c0 0 0 0 0 0s0 0 0 0h20c21 0 39-17 39-39 0-10-4-20-11-28z" horiz-adv-x="1000" />

<glyph glyph-name="021-eye" unicode="&#xe814;" d="M383 527c-11 0-20-9-20-20s9-19 20-19c11 0 19 9 19 19s-8 20-19 20z m117-156c-11 0-20 8-20 19s9 20 20 20c7 0 14-4 21-10 8-8 20-8 28 0 7 8 7 20-1 28-10 9-20 15-28 18v22c0 11-9 20-20 20-11 0-20-9-20-20v-23c-22-8-39-29-39-55 0-32 27-58 59-58 11 0 20-9 20-20s-9-19-20-19c-8 0-17 5-25 14-7 9-20 10-28 3-8-7-9-19-2-28 10-12 22-21 35-25v-23c0-11 9-19 20-19 11 0 20 8 20 19v23c22 8 39 30 39 55 0 32-27 59-59 59z m135 147c-51 41-117 57-183 43-10-2-17-13-15-23s13-18 24-15c53 11 108-1 149-35s66-83 66-137c0-97-79-176-176-176s-176 79-176 176c0 29 7 58 21 83 5 10 2 22-8 27-9 5-21 1-26-8-17-31-26-66-26-102 0-118 97-215 215-215 118 0 215 97 215 215 0 65-29 126-80 167z m361-156c-2 3-58 75-147 149-52 43-105 78-157 103-66 31-130 47-192 47s-126-16-192-47c-52-25-105-60-157-103-89-74-145-146-147-149-5-7-5-17 0-24 2-3 58-75 147-149 52-43 105-78 157-103 66-31 130-47 192-47 62 0 126 16 192 47 52 25 105 60 157 103 89 74 145 146 147 149 5 7 5 17 0 24z m-496-284c-127 0-246 76-324 141-65 53-112 108-131 131 19 23 66 78 131 131 78 65 197 141 324 141s246-76 324-141c65-53 112-108 131-131-44-54-239-272-455-272z" horiz-adv-x="1000" />

<glyph glyph-name="022-security-1" unicode="&#xe815;" d="M227 526c-11 0-20-9-20-20 0-10 9-19 20-19s19 9 19 19c0 11-9 20-19 20z m631 206l-352 117c-4 1-9 1-13 0l-351-117c-8-3-13-10-13-19v-512c0-72 36-139 96-179l243-162c9-7 21-10 32-10 11 0 23 3 33 10l242 162 0 0c60 40 96 107 96 179v512c0 9-5 16-13 19z m-26-531c0-59-29-114-78-147 0 0 0 0 0 0l-243-162c-7-4-15-4-22 0l-243 162c-49 33-78 88-78 147v498l331 111 333-111v-498z m-52 468l-272 99c-1 1-3 1-5 2-3 0-7 0-10-1l-273-100c-8-3-13-10-13-18v-66c0-11 9-19 20-19s19 8 19 19v52l235 86v-314h-235v19c0 10-9 19-19 19s-20-9-20-19v-227c0-46 23-89 61-114l221-148c0 0 0 0 0 0l0 0c0 0 0 0 0 0 1 0 2-1 2-1 0 0 0 0 0 0 0 0 1 0 1 0 0 0 1-1 1-1 0 0 1 0 1 0 0 0 1 0 1 0 0 0 1 0 1-1 0 0 1 0 1 0 1 0 2 0 3 0 0 0 1 0 1 0 0 0 1 0 1 0 1 0 1 0 2 0 0 0 0 0 1 1 0 0 1 0 2 0 0 0 0 0 1 1 0 0 1 0 1 0 0 0 1 1 1 1 0 0 1 0 1 0l221 148c38 25 61 68 61 114v450c0 8-5 15-13 18z m-299-677l-191 127c-28 19-44 49-44 82v169h235v-378z m273 209c0-33-16-63-44-82l-190-127v378h234v-169z m0 208h-234v313l234-85v-228z" horiz-adv-x="1000" />

<glyph glyph-name="023-wallet" unicode="&#xe816;" d="M715 188c-11 0-20-9-20-20 0-10 9-19 20-19 11 0 19 9 19 19 0 11-8 20-19 20z m-508-137c-11 0-19-9-19-19 0-11 8-20 19-20s20 9 20 20c0 10-9 19-20 19z m332 656c0 33-26 59-58 59s-59-26-59-59c0-15 6-28 15-39-9-10-15-24-15-39 0-32 26-58 59-58s58 26 58 58c0 15-6 29-15 39 9 11 15 24 15 39z m-58-97c-11 0-20 9-20 19s9 20 20 20c10 0 19-9 19-20s-9-19-19-19z m0 78c-11 0-20 9-20 19s9 20 20 20c10 0 19-9 19-20s-9-19-19-19z m0-637h-196c-11 0-19-9-19-19 0-11 8-20 19-20h196c10 0 19 9 19 20 0 10-9 19-19 19z m449 231v152c0 32-27 59-59 59h-19v97c0 33-27 59-59 59h-59v58c0 33-26 59-58 59h-59v25c0 33-26 59-58 59h-352c-32 0-59-26-59-59v-142h-19c-54 0-98-44-98-98v-603c0-54 44-98 98-98h742c32 0 59 26 59 59v146c22 8 39 29 39 55v117c0 25-17 47-39 55z m-196 328h59c11 0 20-9 20-20v-97h-79v117z m-117 117h59c11 0 19-9 19-20v-214h-78v234z m-273 84h215c10 0 19-9 19-20v-298h-234v318z m-78 0h39v-318h-39v318z m-78-20c0 11 8 20 19 20h20v-318h-39v298z m-59-181h19v-117h-19c-32 0-59 26-59 58s27 59 59 59z m762-701c0-11-9-20-20-20h-742c-32 0-59 26-59 59v525c17-12 37-19 59-19h39 430 234 39c11 0 20-9 20-20v-148h-39v103c0 11-9 20-20 20h-703c-11 0-20-9-20-20v-441c0-11 9-20 20-20h703c11 0 20 9 20 20v103h39v-142z m-157 142h79v-84h-665v403h665v-84h-79c-31 0-60-13-82-35-23-22-35-51-35-83 0-64 53-117 117-117z m196 59c0-11-9-20-20-20h-176c-43 0-78 35-78 78 0 21 8 41 23 56 15 14 35 23 55 23h176c11 0 20-9 20-20v-117z" horiz-adv-x="1000" />

<glyph glyph-name="024-purse" unicode="&#xe817;" d="M383 448c-11 0-20-9-20-20s9-19 20-19 19 8 19 19-8 20-19 20z m117 39c-15 0-30-2-45-4-11-2-18-12-16-23 2-11 12-18 23-16 12 3 25 4 38 4 119 0 215-97 215-215s-96-215-215-215-215 96-215 215c0 46 14 89 41 126 7 9 5 21-4 28-8 6-21 4-27-5-32-43-49-95-49-149 0-140 114-254 254-254s254 114 254 254-114 254-254 254z m116-147c-26 30-60 47-97 47s-72-17-98-47c-12-14-22-31-28-49h-39c-11 0-20-8-20-19 0-11 9-20 20-20h29c-1-7-1-14-1-21 0-6 0-12 1-18h-29c-11 0-20-8-20-19 0-11 9-20 20-20h37c7-19 17-38 30-53 26-30 60-47 98-47 32 0 64 14 89 38 8 8 8 20 0 28-8 7-20 8-28 0-17-17-39-27-61-27-26 0-50 12-69 34-7 8-12 17-17 27h103c11 0 19 9 19 20 0 11-8 19-19 19h-114c-1 6-1 12-1 18 0 7 0 14 2 21h113c11 0 19 9 19 20 0 11-8 19-19 19h-101c4 9 10 17 15 24 19 21 43 33 69 33 25 0 49-12 68-33 7-9 19-10 27-3 8 7 9 20 2 28z m355-124l-49 66v146c0 119-96 215-215 215h-141l13 39c32 1 58 27 58 59 0 32-27 58-59 58s-58-26-58-58c0-19 8-36 22-47l-17-51h-50l-17 51c14 11 23 28 23 47 0 32-27 58-59 58s-59-26-59-58c0-32 26-58 58-59l13-39h-141c-118 0-215-96-215-215v-147l-49-65c0 0 0 0 0 0-19-26-29-53-29-81 0-65 55-125 155-170 94-41 216-64 345-64s251 23 345 64c100 45 155 105 155 170 0 28-10 55-29 81z m-393 544c11 0 20-9 20-19s-9-20-20-20c-11 0-19 9-19 20s8 19 19 19z m-156-39c-11 0-20 9-20 20s9 19 20 19c11 0 19-9 19-19s-8-20-19-20z m-305-293c0 97 79 176 176 176h168c0 0 0 0 0 0 0 0 0 0 0 0h78c0 0 0 0 0 0 0 0 0 0 0 0h168c97 0 176-79 176-176v-90c-6 11-12 22-16 33-11 24-19 50-24 77-12 68-71 117-140 117h-416c-12 0-25-2-37-5-24-7-45-21-62-41-15-19-26-42-31-67-7-39-21-77-40-112v88z m712-427c-87-39-207-61-329-61s-241 22-329 61c-84 37-132 86-132 134 0 20 7 39 21 58l55 71 0 1c40 53 68 115 81 180 3 18 11 35 22 49 12 14 26 23 42 28 9 3 18 4 27 4h416c50 0 93-36 102-85 5-30 14-58 26-86 12-27 27-53 45-77l64-85c14-19 21-38 21-58 0-48-48-97-132-134z" horiz-adv-x="1000" />

<glyph glyph-name="025-economy" unicode="&#xe818;" d="M539 415c-11 0-19-9-19-20s8-20 19-20c11 0 20 9 20 20s-9 20-20 20z m125 122c-5 82-39 158-97 216-62 62-145 96-232 97 0 0 0 0 0 0 0 0 0 0 0 0 0 0 0 0 0 0 0 0 0 0 0 0-1 0-1 0-1 0 0 0 0 0 0 0 0 0 0 0 0 0-1 0-1 0-2 0-1 0-1 0-2 0 0 0 0 0 0 0 0 0 0 0 0 0 0 0 0 0 0 0 0 0 0 0 0 0 0 0 0 0 0 0 0 0 0 0 0 0 0 0 0 0 0 0-88-1-171-35-233-97-62-62-96-145-97-232 0 0 0 0 0 0 0 0 0 0 0 0 0-1 0-1 0-1 0 0 0 0 0 0 0-1 0-1 0-2 0-89 35-172 97-235 58-58 134-92 216-96 4-181 163-337 343-337 183 0 344 161 344 344 0 181-156 339-336 343z m-431 257c-24-30-43-71-57-120-49-14-90-33-119-57 29 82 94 147 176 177z m-67-164c-5-30-8-61-9-92h-115c12 36 58 70 124 92z m-9-132c1-31 4-62 9-92-66 22-112 56-124 92h115z m-32-187c-31 31-54 68-69 108 30-24 71-43 120-57 14-49 33-90 57-120-40 15-77 38-108 69z m188-83c-37 12-71 58-93 124 30-5 61-9 93-9v-115z m0 154c-37 1-72 5-104 12-8 33-12 68-13 104h117v-116z m0 156h-117c1 36 5 71 13 104 32 7 67 11 104 12v-116z m0 156c-32-1-63-5-93-10 22 66 56 112 93 124v-114z m295-77c-30 24-71 43-120 57-14 49-33 90-57 120 82-30 147-95 177-177z m14-79h-114c-1 31-5 62-10 92 66-22 112-56 124-92z m-270 270c36-12 70-58 92-124-30 5-61 9-92 10v114z m0-154c36-1 71-5 104-12 7-33 11-68 12-104h-116v116z m0-156h116c0-7 0-14-1-20-18-13-35-27-51-44-17-16-31-33-43-51-7-1-14-1-21-1v116z m304-609c-162 0-304 142-304 305 0 3 0 7 0 11 6 153 140 287 293 293 0 0 0 0 0 0 4 0 8 0 11 0 163 0 305-142 305-304s-142-305-305-305z m183 487c-49 49-116 78-183 78-15 0-30-2-45-4-11-2-18-13-16-23 2-11 12-18 23-16 13 2 25 4 38 4 118 0 221-104 221-221s-103-221-221-221-220 103-220 221c0 42 17 92 47 132 6 9 4 21-5 27-8 7-20 5-27-4-34-47-54-105-54-155 0-67 28-133 77-183 49-49 116-77 182-77 67 0 134 28 183 77 49 50 77 116 77 183 0 67-28 133-77 182z m-144-163h-19v78h19c11 0 20-8 20-19 0-11 9-20 19-20s20 9 20 20c0 32-26 59-59 59h-19v19c0 11-9 20-20 20s-19-9-19-20v-19h-20c-32 0-58-27-58-59v-39c0-32 26-59 58-59h20v-78h-20c-11 0-19 9-19 20 0 10-9 19-20 19s-19-9-19-19c0-33 26-59 58-59h20v-19c0-11 9-20 19-20s20 9 20 20v19h19c33 0 59 26 59 59v39c0 32-26 58-59 58z m-58 0h-20c-11 0-19 9-19 20v39c0 11 8 19 19 19h20v-78z m78-97c0-11-9-20-20-20h-19v78h19c11 0 20-8 20-19v-39z m-20 683h-39c-10 0-19-8-19-19s9-20 19-20h39c11 0 20 9 20 20s-9 19-20 19z m118 0h-40c-10 0-19-8-19-19s9-20 19-20h40c10 0 19 9 19 20s-9 19-19 19z m117-234c-11 0-20-9-20-20v-39c0-10 9-19 20-19s19 9 19 19v39c0 11-8 20-19 20z m0 117c-11 0-20-9-20-19v-40c0-10 9-19 20-19s19 9 19 19v40c0 10-8 19-19 19z m-39 117c-11 0-20-8-20-19s9-20 20-20c10 0 19-9 19-19 0-11 9-20 20-20s19 9 19 20c0 32-26 58-58 58z m-547-859h-39c-11 0-20-9-20-20 0-11 9-19 20-19h39c11 0 19 8 19 19 0 11-8 20-19 20z m-117 0h-39c-11 0-20-9-20-20 0-11 9-19 20-19h39c10 0 19 8 19 19 0 11-9 20-19 20z m-157 273c-10 0-19-8-19-19v-39c0-11 9-20 19-20s20 9 20 20v39c0 11-9 19-20 19z m0-117c-10 0-19-9-19-19v-39c0-11 9-20 19-20s20 9 20 20v39c0 10-9 19-20 19z m39-156c-10 0-19 9-19 19 0 11-9 20-20 20s-19-9-19-20c0-32 26-58 58-58 11 0 20 8 20 19 0 11-9 20-20 20z" horiz-adv-x="1000" />

<glyph glyph-name="026-investment" unicode="&#xe819;" d="M500 565c-11 0-19-9-19-20s8-19 19-19 20 9 20 19-9 20-20 20z m234-324c-78 0-136-34-136-78v-235c0-44 58-78 136-78s137 34 137 78v235c0 44-59 78-137 78z m98-313c0-16-38-39-98-39-59 0-97 23-97 39v22c24-14 58-22 97-22s74 8 98 22v-22z m0 78c0-16-38-39-98-39-59 0-97 23-97 39v23c24-14 58-23 97-23s74 9 98 23v-23z m0 78c0-16-38-39-98-39-59 0-97 23-97 39v23c24-14 58-23 97-23s74 9 98 23v-23z m-98 39c-59 0-97 24-97 40 0 15 38 39 97 39 60 0 98-24 98-39 0-16-38-40-98-40z m-591 40c-70 0-143-30-143-79v-156c0-49 73-78 143-78 70 0 142 29 142 78v156c0 49-72 79-142 79z m103-235c0-15-44-39-103-39-59 0-104 24-104 39v24c28-15 66-24 104-24s76 9 103 24v-24z m0 78c0-15-44-39-103-39-59 0-104 24-104 39v24c28-15 66-24 104-24s76 9 103 24v-24z m-103 39c-59 0-104 24-104 39s45 39 104 39 103-23 103-39-44-39-103-39z m857 293c-7 124-63 242-158 330-89 84-203 132-322 137v26c0 10-9 19-20 19-11 0-19-9-19-19v-26c-119-5-233-53-323-137-95-88-151-206-157-330-1-10 6-19 16-20 11-2 20 5 22 15 3 15 45 37 103 37 60 0 98-24 98-39 0-11 9-20 19-20 0 0 0 0 1 0 0 0 0 0 0 0 0 0 0 0 0 0 0 0 0 0 0 0 11 0 19 9 19 19 0 1 0 2 0 2 4 15 46 38 104 38 59 0 98-24 98-39v-383c0-33-27-59-59-59-16 0-30 6-41 17s-18 26-18 42v39c0 10-8 19-19 19-11 0-20-9-20-19v-39c0-26 10-51 29-69 18-19 43-29 69-29 54 0 98 44 98 98v383c0 15 38 39 97 39 59 0 101-23 104-38 0 0 0-1 0-2 0-10 9-19 20-19 0 0 0 0 0 0 0 0 0 0 0 0 0 0 0 0 0 0 0 0 0 0 0 0 0 0 0 0 0 0 11 0 20 9 20 20 0 15 38 39 97 39 58 0 100-22 103-37 3-10 12-17 22-15 10 1 18 10 17 20z m-757 47c-25 15-60 24-101 24-32 0-63-6-89-17-2-1-5-2-7-3 31 173 166 315 335 361-23-23-44-52-63-88-41-76-67-173-75-277z m374 24c-39 0-73-9-97-23v81c0 11-9 20-20 20-11 0-19-9-19-20v-81c-25 14-59 23-98 23-35 0-73-8-101-23 18 198 101 359 199 378v-144c0-11 8-19 19-19 11 0 20 8 20 19v144c97-19 181-180 198-378-28 15-65 23-101 23z m330-17c-25 11-57 17-89 17-40 0-76-9-100-24-9 104-35 201-76 277-19 36-40 65-63 88 170-46 305-188 336-361-3 1-5 2-8 3z" horiz-adv-x="1000" />

<glyph glyph-name="027-laptop" unicode="&#xe81a;" d="M701 77c-11 0-19-9-19-20 0-11 8-19 19-19 11 0 20 8 20 19 0 11-9 20-20 20z m-525 0c-11 0-20-9-20-20 0-11 9-19 20-19s19 8 19 19c0 11-8 20-19 20z m-78 0c-11 0-20-9-20-20 0-11 9-19 20-19s19 8 19 19c0 11-9 20-19 20z m883 78h-20v527c0 32-26 59-59 59h-804c-33 0-59-27-59-59v-527h-19c-11 0-20-9-20-20v-78c0-54 44-98 98-98h804c54 0 98 44 98 98v78c0 11-9 20-19 20z m-903 527c0 11 9 20 20 20h804c11 0 20-9 20-20v-527h-299c-11 0-19-9-19-20v-19h-207v19c0 11-9 20-20 20h-299v527z m883-625c0-32-26-59-59-59h-804c-33 0-59 27-59 59v59h20 298v-20c0-11 9-19 20-19h246c11 0 20 8 20 19v20h298 20v-59z m-59 20h-123c-10 0-19-9-19-20s9-19 19-19h123c11 0 20 8 20 19s-9 20-20 20z m-39 586h-726c-11 0-20-9-20-20v-430c0-10 9-19 20-19h726c11 0 20 9 20 19v430c0 11-9 20-20 20z m-19-430h-688v390h688v-390z m-65 78h-19v254c0 11-9 19-20 19h-78c-11 0-19-8-19-19v-254h-39v176c0 11-9 19-20 19h-84c-11 0-19-8-19-19v-176h-45v98c0 10-9 19-20 19h-78c-11 0-20-9-20-19v-98h-19c-11 0-20-9-20-20s9-19 20-19h480c11 0 20 9 20 19s-9 20-20 20z m-382 0h-40v78h40v-78z m168 0h-45v156h45v-156z m156 0h-39v234h39v-234z m-344 273h-162c-11 0-20-8-20-19s9-20 20-20h162c11 0 20 9 20 20s-9 19-20 19z m0-78h-162c-11 0-20-8-20-19s9-20 20-20h162c11 0 20 9 20 20s-9 19-20 19z" horiz-adv-x="1000" />

<glyph glyph-name="028-piggy-bank" unicode="&#xe81b;" d="M735 248c-12 0-21-9-21-20 0-12 9-21 21-21s20 9 20 21c0 11-9 20-20 20z m-286 0c-11 0-20 9-20 20 0 12 9 21 20 21 7 0 15-4 22-11 8-8 21-7 29 1 8 8 8 21-1 28-10 11-20 16-30 19v24c0 11-9 20-20 20-11 0-20-9-20-20v-24c-24-8-41-31-41-58 0-33 27-61 61-61 11 0 20-9 20-20 0-11-9-21-20-21-9 0-18 6-26 16-8 8-21 10-29 2-9-7-10-20-3-28 11-13 24-22 38-27v-24c0-11 9-20 20-20 11 0 20 9 20 20v24c24 8 41 31 41 58 0 34-27 61-61 61z m-161 105c-11 11-27 17-43 17-34 0-61-27-61-61 0-11 9-20 20-20s21 9 21 20c0 11 9 21 20 21 5 0 11-2 14-6 4-4 6-9 6-15 0-11 9-20 21-20 11 0 20 9 20 20 0 17-6 32-18 44z m458-46c-14 47-46 89-91 122-9 7-22 5-28-4-7-10-5-22 4-29 38-28 64-63 76-101 3-9 11-15 20-15 2 0 4 1 6 1 11 4 17 15 13 26z m254 206c0 12-9 21-20 21-12 0-21-9-21-21 0-16-4-32-11-46-11 16-29 26-50 26-34 0-61-28-61-61 0-34 27-62 61-62 7 0 13 2 19 3-3-17-10-33-21-47-16-19-38-32-62-36-9 53-32 104-69 148-40 47-94 84-156 108 16 27 24 58 24 90 0 101-83 183-184 183s-184-82-184-183c0-32 8-63 24-90-13-5-26-11-38-17-21 26-50 43-84 50-37 7-75 0-107-21-9-7-12-19-5-29l69-103c0 0 0 0 0 0-19-24-33-49-43-76h-61c-11 0-20-9-20-20v-164c0-11 9-20 20-20h61c20-52 55-99 103-136v-109c0-11 9-20 20-20h123c11 0 20 9 20 20v32c33-8 67-12 102-12 35 0 69 4 102 12v-32c0-11 9-20 20-20h123c11 0 20 9 20 20v109c78 61 123 148 123 238 0 1 0 1 0 2 35 5 67 23 90 51 26 31 36 71 31 111 27 27 42 63 42 101z m-551 266c79 0 143-64 143-143 0-33-11-63-31-88-27-35-68-55-112-55-44 0-85 20-112 55-20 25-31 55-31 88 0 79 64 143 143 143z m233-743c-5-4-8-10-8-16v-99h-82v38c0 7-3 13-8 17-5 3-12 5-18 3-38-11-77-17-117-17s-79 6-117 17c-6 2-12 0-18-3s-8-10-8-17v-38h-81v99c0 6-4 12-9 16-49 37-84 84-102 137-3 8-10 14-19 14h-54v122h54c9 0 16 6 19 14 11 32 28 61 50 88 6 7 7 17 2 25-5 8-9 13-9 13l-56 84c18 8 39 10 58 6 27-6 50-21 65-44 0 0 3-3 3-4 6-9 18-12 27-7 19 11 39 20 60 27 12-13 25-23 39-32-1-1-3-1-5-2-11-4-17-15-13-26 2-8 10-14 19-14 2 0 4 0 6 1 29 9 59 14 89 14 30 0 60-5 88-14 11-3 22 3 26 13 3 11-3 23-13 26-2 1-4 1-5 2 14 9 27 19 39 32 127-44 212-149 212-263 0-80-42-158-114-212z m236 390c-1 0-1-1-1-2 0 0 0 0 0 0-3-7-11-13-19-13-11 0-20 9-20 21 0 11 9 20 20 20 11 0 20-9 20-20 0-2 0-4 0-6z m-469 312c-56 0-102-46-102-102s46-102 102-102 102 45 102 102-46 102-102 102z m0-163c-34 0-61 27-61 61s27 61 61 61c34 0 61-27 61-61s-27-61-61-61z" horiz-adv-x="1000" />

<glyph glyph-name="029-mortgage" unicode="&#xe81c;" d="M103 243c-10 0-19-9-19-20 0-11 9-19 19-19 11 0 20 8 20 19 0 11-9 20-20 20z m864-65c-20 14-45 18-68 9-1 0-1 0-1 0l-184-72c0 3 0 7 0 11 0 43-35 78-78 78h-126c-3 0-7 1-10 2l-103 58c-20 12-43 18-67 18h-129v19c0 11-9 20-19 20h-162c-11 0-20-9-20-20v-351c0-11 9-20 20-20h162c10 0 19 9 19 20v19h15l186-75c36-15 75-22 114-22 44 0 86 9 126 27 0 0 0 0 0 0l311 148c28 11 46 39 46 69 0 25-12 48-32 62z m-805-209h-123v313h123v-313z m776 114c-1 0-1 0-2-1l-310-147c-35-16-72-24-110-24-34 0-68 6-99 19l-190 77c-2 1-5 1-7 1h-19v235h129c17 0 34-5 48-13l103-58c9-5 19-7 29-7h126c22 0 39-18 39-39 0-14-7-27-18-34l0 0c-2 0-3-1-4-2-5-2-11-3-17-3h-198c-32 0-59-27-59-59 0-11 9-20 20-20 11 0 19 9 19 20 0 11 9 20 20 20h198c13 0 26 3 38 9l238 94c11 4 23 2 33-5 10-7 15-18 15-30 0-14-9-28-22-33z m-835 82c-10 0-19-9-19-20v-117c0-11 9-20 19-20 11 0 20 9 20 20v117c0 11-9 20-20 20z m876 464c0 0 0 0 0 0l-231 186c-22 18-53 18-75 0l-231-188c0 0 0 0 0 0-12-10-19-24-21-40-1-15 4-30 14-42 11-14 27-21 45-21 5 0 11 0 16 2v-264c0-11 9-19 19-19h137 117 137c10 0 19 8 19 19v266c22-7 46 0 62 18 20 25 17 62-8 83z m-229-347h-79v156h79v-156z m136 0h-97v175c0 11-9 20-20 20h-117c-11 0-20-9-20-20v-175h-97v270l176 142 175-141v-271z m71 289c-7-8-20-9-28-2 0 0 0 0 0 0l-206 165c-7 6-18 6-25 0l-205-167c-1 0-1 0-1 0-3-3-8-4-12-4-6 0-11 2-15 7-4 4-5 9-5 14 1 5 3 10 7 13l231 187c0 1 0 1 0 1 7 6 18 6 25 0 0 0 0 0 0-1l231-185c8-7 9-20 3-28z m-246 62c-33 0-59-26-59-58s26-59 59-59 58 26 58 59-26 58-58 58z m0-78c-11 0-20 9-20 20s9 19 20 19c10 0 19-9 19-19s-9-20-19-20z" horiz-adv-x="1000" />

<glyph glyph-name="030-folder" unicode="&#xe81d;" d="M143 331c-11 0-20-9-20-20 0-11 9-20 20-20s19 9 19 20c0 11-9 20-19 20z m0 201c-11 0-20-9-20-20v-123c0-11 9-19 20-19s19 8 19 19v123c0 11-9 20-19 20z m39-442h-84c-11 0-20-8-20-19v-84c0-11 9-20 20-20h84c10 0 19 9 19 20v84c0 11-9 19-19 19z m-20-84h-45v45h45v-45z m221 526c-11 0-20-9-20-20v-201c0-11 9-20 20-20s19 9 19 20v201c0 11-8 20-19 20z m39-442h-84c-11 0-20-8-20-19v-84c0-11 9-20 20-20h84c11 0 19 9 19 20v84c0 11-8 19-19 19z m-20-84h-45v45h45v-45z m215 526c-11 0-19-9-19-20v-201c0-11 8-20 19-20s20 9 20 20v201c0 11-9 20-20 20z m45-442h-84c-11 0-19-8-19-19v-84c0-11 8-20 19-20h84c11 0 20 9 20 20v84c0 11-9 19-20 19z m-19-84h-45v45h45v-45z m214 526c-10 0-19-9-19-20v-201c0-11 9-20 19-20s20 9 20 20v201c0 11-9 20-20 20z m84 318h-162c-15 0-28-6-39-15-10 9-24 15-39 15h-162c-15 0-29-6-39-15-10 9-24 15-39 15h-162c-15 0-29-6-39-15-11 9-24 15-39 15h-162c-33 0-59-26-59-59v-882c0-33 26-59 59-59h162c15 0 28 6 39 15 10-9 24-15 39-15h162c15 0 29 6 39 15 10-9 24-15 39-15h162c15 0 29 6 39 15 11-9 24-15 39-15h162c33 0 59 26 59 59v882c0 33-26 59-59 59z m-701-941c0-11-8-20-19-20h-162c-11 0-20 9-20 20v265h201v-265z m0 304h-201v578c0 11 9 20 20 20h162c11 0 19-9 19-20v-578z m241-304c0-11-9-20-20-20h-162c-11 0-20 9-20 20v265h202v-265z m0 304h-202v578c0 11 9 20 20 20h162c11 0 20-9 20-20v-578z m240-304c0-11-9-20-20-20h-162c-11 0-19 9-19 20v265h201v-265z m0 304h-201v578c0 11 8 20 19 20h162c11 0 20-9 20-20v-578z m240-304c0-11-9-20-20-20h-162c-10 0-19 9-19 20v265h201v-265z m0 304h-201v578c0 11 9 20 19 20h162c11 0 20-9 20-20v-578z m-59-123h-84c-10 0-19-8-19-19v-84c0-11 9-20 19-20h84c11 0 20 9 20 20v84c0 11-9 19-20 19z m-19-84h-45v45h45v-45z m19 721h-84c-10 0-19-9-19-20s9-19 19-19h84c11 0 20 9 20 19s-9 20-20 20z m0-78h-84c-10 0-19-9-19-20s9-19 19-19h84c11 0 20 9 20 19s-9 20-20 20z m-240 78h-84c-11 0-19-9-19-20s8-19 19-19h84c11 0 20 9 20 19s-9 20-20 20z m0-78h-84c-11 0-19-9-19-20s8-19 19-19h84c11 0 20 9 20 19s-9 20-20 20z m-240 78h-84c-11 0-20-9-20-20s9-19 20-19h84c11 0 19 9 19 19s-8 20-19 20z m0-78h-84c-11 0-20-9-20-20s9-19 20-19h84c11 0 19 9 19 19s-8 20-19 20z m-240 78h-84c-11 0-20-9-20-20s9-19 20-19h84c10 0 19 9 19 19s-9 20-19 20z m0-78h-84c-11 0-20-9-20-20s9-19 20-19h84c10 0 19 9 19 19s-9 20-19 20z" horiz-adv-x="1000" />

<glyph glyph-name="031-pie-chart" unicode="&#xe81e;" d="M98 331c-11 0-20-9-20-20 0-11 9-20 20-20s19 9 19 20c0 11-9 20-19 20z m804 0h-421v421c0 11-9 20-20 20-61 0-120-13-177-37-54-24-104-58-147-101-42-42-76-92-100-146-24-57-37-116-37-177 0-61 13-120 37-177 24-54 58-104 100-147 43-42 93-76 147-100 57-25 116-37 177-37 26 0 52 2 78 7 103 18 199 74 271 158 72 85 112 190 112 296 0 11-9 20-20 20z m-370-436c-23-4-47-6-71-6-225 0-422 197-422 422 0 218 186 410 402 421v-421c0-11 9-20 20-20h421c-9-190-160-362-350-396z m353 840c-72 73-170 115-268 115-14 0-27-1-41-2-10-1-17-10-17-20v-400c0-11 8-19 19-19h400c10 0 19 7 20 17 1 14 2 27 2 41 0 98-42 196-115 268z m75-287h-362v362c6 1 13 1 19 1 183 0 344-161 344-344 0-6 0-13-1-19z m-499-481c-154 0-301 119-336 271-2 10-12 17-23 15-11-3-17-13-15-24 19-81 66-156 135-212 70-57 154-89 239-89 11 0 20 9 20 20s-9 19-20 19z" horiz-adv-x="1000" />

<glyph glyph-name="032-auction" unicode="&#xe81f;" d="M230 510c-8 7-20 7-28 0-7-8-7-20 0-28 8-8 20-8 28 0 8 8 8 20 0 28z m265-535c8 12 13 26 13 41 0 38-31 68-69 68h-332c-18 0-35-7-48-20-13-12-20-30-20-48 0-15 5-29 13-40-31-17-52-49-52-87v-19c0-11 9-20 20-20h507c11 0 20 9 20 20v19c0 38-21 70-52 86z m-408 62c5 5 13 8 20 8h332c17 0 30-13 30-29 0-8-3-15-9-21-5-5-13-8-21-8h-332c-16 0-29 13-29 29 0 8 3 15 9 21z m-48-148c0 32 26 59 59 59h9 332 10c33 0 59-27 59-59h-469z m943 140c-7 11-15 20-24 28l-91 79c-1 1-1 2-2 3-2 2-4 3-6 4l-55 48-255 223c10 11 16 25 16 40 0 16-6 31-17 42-5 5-11 8-16 11l23 24c7-2 14-3 20-3 20 0 40 8 56 23 14 15 22 34 22 55s-8 41-22 55l-166 166c-15 15-35 23-55 23-21 0-41-8-56-23-20-20-27-49-20-75l-236-236c-6 2-13 3-20 3-21 0-40-9-55-23-31-31-31-80 0-111l166-165c15-16 35-23 55-23 20 0 40 7 55 23 21 20 27 49 20 75l24 24c3-6 7-12 11-17 11-11 26-17 42-17 15 0 29 6 40 16l272-312c1-1 2-3 3-4 0 0 1 0 1-1l81-93c2-2 4-4 7-7 22-22 51-34 82-34 6 0 11 0 17 1 36 5 68 27 87 60 20 37 19 83-4 118z m-600 771c7 7 17 11 28 11 10 0 20-4 27-11l166-166c7-8 11-17 11-28 0-10-4-20-11-27-15-16-40-16-55 0l-166 165c0 0 0 0 0 0-15 16-15 40 0 56z m-110-553c-16-15-40-15-56 0l-165 166c-16 15-16 40 0 55 7 7 17 12 27 12 11 0 20-5 28-12l166-166c15-15 15-40 0-55z m82 138l-55-55-166 166 221 221 166-166-55-55c0 0 0 0 0 0l-111-111c0 0 0 0 0 0z m69-41c0 0 0 0 0 0l-13-14c-4-4-9-6-14-6-5 0-10 2-14 6-4 4-6 9-6 14 0 5 2 10 6 13l111 111c7 8 20 8 27 0 4-4 6-8 6-14 0-5-2-10-6-14l-14-13c0 0 0 0 0 0l-83-83z m41-15l57 57 242-211-88-88-211 242z m236-271l92 92 30-26-96-96-26 30z m252-127c-13-23-34-38-59-41-24-4-48 4-66 22-1 1-3 3-4 5 0 0 0 0 0 0l-71 81 99 100 82-71c0 0 0 0 0 0 6-5 11-12 16-19 15-23 16-54 3-77z m-584 717c-7 7-20 7-27 0l-83-83c-8-8-8-20 0-28 4-4 9-6 14-6 5 0 10 2 13 6l83 83c8 8 8 20 0 28z" horiz-adv-x="1000" />

<glyph glyph-name="033-bar-chart" unicode="&#xe820;" d="M59 850c-11 0-20-9-20-19s9-20 20-20 19 9 19 20-9 19-19 19z m922-916h-59v740c0 11-9 20-20 20h-162c-11 0-19-9-19-20v-740h-78v578c0 11-9 20-20 20h-162c-11 0-20-9-20-20v-578h-78v422c0 11-8 19-19 19h-162c-11 0-20-8-20-19v-422h-84v818c0 11-9 20-19 20s-20-9-20-20v-19h-19c-11 0-20-9-20-20s9-19 20-19h19v-123h-19c-11 0-20-9-20-20s9-19 20-19h19v-117h-19c-11 0-20-9-20-20s9-20 20-20h19v-117h-19c-11 0-20-8-20-19s9-20 20-20h19v-123h-19c-11 0-20-9-20-19s9-20 20-20h19v-123h-19c-11 0-20-9-20-20s9-19 20-19h19v-26c0-10 9-19 20-19s19 9 19 19v26h123v-26c0-10 9-19 20-19s19 9 19 19v26h123v-26c0-10 9-19 20-19s19 9 19 19v26h118v-26c0-10 8-19 19-19 11 0 20 9 20 19v26h123v-26c0-10 8-19 19-19 11 0 20 9 20 19v26h123v-26c0-10 9-19 19-19 11 0 20 9 20 19v26h98c10 0 19 9 19 19s-9 20-19 20z m-657 0h-123v402h123v-402z m280 0h-123v559h123v-559z m279 0h-123v721h123v-721z" horiz-adv-x="1000" />

<glyph glyph-name="034-loan" unicode="&#xe821;" d="M104 262c-11 0-20-9-20-19 0-11 9-20 20-20s19 9 19 20c0 10-9 19-19 19z m864-65c-20 15-46 18-69 10 0 0 0 0 0-1l-185-72c1 4 1 7 1 11 0 43-35 78-78 78h-127c-3 0-6 1-9 3l-103 58c-21 11-44 17-68 17h-129v20c0 11-9 19-19 19h-162c-11 0-20-8-20-19v-352c0-11 9-19 20-19h162c10 0 19 8 19 19v20h15l186-76c37-15 75-22 114-22 44 0 87 9 126 27 1 0 1 0 1 0l310 148c29 12 47 39 47 70 0 24-12 47-32 61z m-806-208h-123v312h123v-312z m776 113c0 0-1 0-1 0l-311-148c-35-16-71-24-110-24-34 0-67 7-99 19l-190 77c-2 1-5 2-7 2h-19v234h129c17 0 34-4 48-12l104-58c8-5 18-8 28-8h127c21 0 39-17 39-39 0-14-7-26-19-33l0 0c-1-1-3-2-4-3-5-2-11-3-16-3h-199c-32 0-58-26-58-59 0-10 8-19 19-19 11 0 20 9 20 19 0 11 8 20 19 20h199c13 0 26 3 37 9l239 94c11 4 23 2 33-5 9-6 15-17 15-29 0-15-9-28-23-34z m-834 82c-11 0-20-9-20-19v-118c0-10 9-19 20-19s19 9 19 19v118c0 10-9 19-19 19z m669 313c-64 0-117-53-117-118s53-117 117-117 118 53 118 117-53 118-118 118z m0-196c-43 0-78 35-78 78 0 43 35 78 78 78 44 0 79-35 79-78 0-43-35-78-79-78z m-78 508c-64 0-117-53-117-117s53-117 117-117 118 52 118 117-53 117-118 117z m0-195c-43 0-78 35-78 78 0 43 35 78 78 78 43 0 78-35 78-78 0-43-35-78-78-78z m-234-39c-65 0-117-53-117-118s52-117 117-117 117 53 117 117-52 118-117 118z m0-196c-43 0-78 35-78 78 0 44 35 79 78 79 43 0 78-35 78-79 0-43-35-78-78-78z" horiz-adv-x="1000" />

<glyph glyph-name="035-truck" unicode="&#xe822;" d="M629 350c-11 0-20-9-20-19 0-11 9-20 20-20 11 0 19 9 19 20 0 10-8 19-19 19z m-350 117c-10 0-19 9-19 20 0 11 9 19 19 19 7 0 15-3 21-10 8-7 21-7 28 1 8 7 7 20 0 27-10 10-20 15-29 18v23c0 11-9 19-20 19s-19-8-19-19v-23c-23-8-39-30-39-55 0-33 26-59 58-59 11 0 20-9 20-19 0-11-9-20-20-20-8 0-17 5-25 15-7 8-19 9-28 2-8-7-9-19-2-27 11-13 23-21 36-26v-22c0-11 9-20 19-20 11 0 20 9 20 20v22c23 8 39 30 39 56 0 32-26 58-59 58z m-58-273c-33 0-59-26-59-59s26-58 59-58 58 26 58 58-26 59-58 59z m0-78c-11 0-20 8-20 19 0 11 9 20 20 20s19-9 19-20c0-11-8-19-19-19z m720 0c33 0 59 26 59 58v39c0 26-16 48-39 56v101c0 53-44 97-98 97-2 0-5 1-7 2-3 1-5 3-6 6l-64 103c-18 28-49 45-83 45h-138v20c0 32-27 59-59 59h-447c-33 0-59-27-59-59v-469c0-32 26-58 59-58h26c5-31 19-58 40-78h-105c-11 0-20-9-20-20s9-20 20-20h961c10 0 19 9 19 20s-9 20-19 20h-120c21 20 36 47 40 78h40z m-902 527c0 11 9 20 20 20h447c11 0 19-9 19-20v-410h-209c-25 25-59 39-95 39-36 0-70-14-96-39h-86v410z m486-449v-39h-169c-2 13-6 26-12 39h181z m-440-39h-26c-11 0-20 8-20 19v20h58c-6-13-10-26-12-39z m136-117c-54 0-98 43-98 97 0 24 8 46 24 64 1 1 2 2 2 3 19 20 45 31 72 31 27 0 54-12 73-33 0 0 0 0 0 0 16-18 24-41 24-65 0-54-43-97-97-97z m95 0c21 20 36 47 40 78h189 85c5-31 19-58 40-78h-354z m450 0c-54 0-98 43-98 97s44 98 98 98 97-44 97-98-43-97-97-97z m0 234c-69 0-126-51-136-117h-65v429h138c20 0 39-10 50-27l64-103c5-8 12-14 20-19 8-4 17-7 26-7 26 0 48-16 56-39h-17c-10 0-19-9-19-19s9-20 19-20h20v-39h-20c-10 0-19-9-19-20s9-19 19-19h20v-20c0-10 9-19 19-19 11 0 20-9 20-20v-39c0-11-9-19-20-19h-40c-10 66-67 117-135 117z m0-78c-33 0-59-26-59-59s26-58 59-58 58 26 58 58-26 59-58 59z m0-78c-11 0-20 8-20 19 0 11 9 20 20 20 10 0 19-9 19-20 0-11-9-19-19-19z m35 303l-78 118c-3 5-9 8-16 8h-78c-11 0-20-8-20-19v-117c0-11 9-20 20-20h156c7 0 14 4 17 10 4 7 3 14-1 20z m-153 9v78h49l52-78h-101z m137-78h-78c-11 0-19-9-19-19s8-20 19-20h78c11 0 20 9 20 20s-9 19-20 19z" horiz-adv-x="1000" />

<glyph glyph-name="036-security" unicode="&#xe823;" d="M676-27c-11 0-20-9-20-20 0-10 9-19 20-19 11 0 19 9 19 19 0 11-8 20-19 20z m184 174c-20 30-48 52-80 65l-144 57c38 36 59 86 59 140 0 21-3 41-9 61 6 3 9 10 9 17v60l34 68 34 16c6 4 10 10 10 18v58c0 9-5 16-13 19l-55 19-135 101c-3 3-7 4-11 4h-118c-4 0-8-1-11-4l-134-101-56-19c-8-3-13-10-13-19v-58c0-8 4-14 10-18l34-16 34-68v-60c0-7 4-14 10-17-7-20-10-40-10-61 0-54 21-104 59-140l-143-57c-33-13-61-35-81-65-20-29-31-63-31-98v-180c0-10 9-19 20-19h351c1 0 1 0 1 0 0 0 0 0 0 0h39c0 0 0 0 0 0 0 0 0 0 0 0h351c11 0 20 9 20 19v180c0 35-11 69-31 98z m-162 55l-120-198v60c0 12-4 25-12 35l-34 46c16 10 27 28 27 49v28c14 5 28 11 41 19l98-39z m-395 436c-2 4-5 7-9 9l-28 14v32l45 15c2 1 4 2 6 3l131 100h104l132-100c1-1 3-2 5-3l45-15v-32l-28-14c-4-2-7-5-9-9l-33-67h-328l-33 67z m41-106h312v-31l-51-17c-34-11-69-17-105-17-18 0-36 2-54 5-18 2-35 7-52 12l-38 13c-2 2-4 3-6 5-2 1-4 1-6 1v29z m0-123c0 16 2 33 7 48l31-10c19-6 38-11 58-14 20-3 40-5 60-5 40 0 79 7 117 19l32 10c5-15 7-32 7-48 0-52-25-100-68-130 0 0-1 0-1 0-16-11-34-18-52-23-23-5-47-5-70 0-18 5-36 12-52 23-43 29-69 78-69 130z m176-195v-20c0-11-9-20-20-20-5 0-10 2-14 6-3 4-5 9-5 14v20c6 0 13-1 19-1 7 0 13 1 20 1z m-120 27c13-8 27-14 41-19v-28c0-16 7-31 18-42 3-3 6-5 9-7l-34-46c-8-10-12-23-12-35v-60l-120 198 98 39z m-252-352v160c0 56 34 106 87 127l31 12 157-261 23-38h-298z m391 51l-30-51h-17l-31 51v124c0 4 1 8 4 11l35 47 35-47c3-3 4-7 4-11v-124z m15-51l180 299 31-12c53-21 87-71 87-127v-160h-298z m-54 877c-43 0-78-35-78-78 0-43 35-78 78-78 43 0 78 35 78 78 0 43-35 78-78 78z m0-117c-21 0-39 17-39 39s18 39 39 39c22 0 39-18 39-39s-17-39-39-39z m293-676h-39c-11 0-20-9-20-20s9-19 20-19h39c11 0 20 9 20 19s-9 20-20 20z" horiz-adv-x="1000" />

<glyph glyph-name="037-safebox" unicode="&#xe824;" d="M324 565c-11 0-19-9-19-20s8-19 19-19 20 9 20 19-9 20-20 20z m586 285h-820c-32 0-59-26-59-59v-798c0-33 27-59 59-59h19v-65c0-10 9-19 20-19h195c11 0 20 9 20 19v65h312v-65c0-10 9-19 20-19h195c11 0 20 9 20 19v65h19c33 0 59 26 59 59v798c0 33-26 59-59 59z m-605-961h-157v45h157v-45z m547 0h-157v45h157v-45z m78 104c0-11-9-20-20-20h-39-195-352-195-39c-11 0-20 9-20 20v798c0 11 9 20 20 20h820c11 0 20-9 20-20v-798z m-59 455c11 0 20 8 20 19v156c0 11-9 20-20 20h-19v64c0 11-9 20-20 20h-664c-11 0-20-9-20-20v-630c0-11 9-20 20-20h664c11 0 20 9 20 20v58h19c11 0 20 9 20 20v156c0 11-9 20-20 20h-19v117h19z m-58-352h-625v592h625v-45h-20c-11 0-20-9-20-20v-156c0-11 9-19 20-19h20v-117h-20c-11 0-20-9-20-20v-156c0-11 9-20 20-20h20v-39z m39 78h-39v117h39v-117z m-39 313v117h39v-117h-39z m-98 156h-469c-11 0-19-9-19-20v-156c0-11 8-19 19-19h469c11 0 19 8 19 19v156c0 11-8 20-19 20z m-20-156h-429v117h429v-117z m-58 78h-235c-10 0-19-9-19-20s9-19 19-19h235c11 0 19 9 19 19s-8 20-19 20z m-313-156h-78c-11 0-19-9-19-20v-78c0-11 8-20 19-20h78c11 0 20 9 20 20v78c0 11-9 20-20 20z m-19-78h-39v39h39v-39z m215 78h-79c-10 0-19-9-19-20v-78c0-11 9-20 19-20h79c10 0 19 9 19 20v78c0 11-9 20-19 20z m-20-78h-39v39h39v-39z m215 78h-78c-11 0-20-9-20-20v-78c0-11 9-20 20-20h78c11 0 19 9 19 20v78c0 11-8 20-19 20z m-20-78h-39v39h39v-39z m20-79h-78c-11 0-20-8-20-19v-78c0-11 9-20 20-20h78c11 0 19 9 19 20v78c0 11-8 19-19 19z m-20-78h-39v39h39v-39z m-175 78h-79c-10 0-19-8-19-19v-78c0-11 9-20 19-20h79c10 0 19 9 19 20v78c0 11-9 19-19 19z m-20-78h-39v39h39v-39z m-176 78h-78c-11 0-19-8-19-19v-78c0-11 8-20 19-20h78c11 0 20 9 20 20v78c0 11-9 19-20 19z m-19-78h-39v39h39v-39z" horiz-adv-x="1000" />

<glyph glyph-name="038-money-3" unicode="&#xe825;" d="M740 538c-10 0-19-9-19-20s9-20 19-20c11 0 20 9 20 20s-9 20-20 20z m-480 0c-11 0-20-9-20-20s9-20 20-20 19 9 19 20-8 20-19 20z m240 0c-11 0-19 8-19 19 0 11 8 20 19 20 7 0 14-4 21-11 8-7 20-7 28 1 7 8 7 20-1 27-10 10-19 15-28 18v23c0 11-9 20-20 20-11 0-19-9-19-20v-23c-23-8-40-29-40-55 0-32 27-59 59-59 11 0 20-8 20-19 0-11-9-20-20-20-8 0-17 6-25 15-7 8-20 10-28 3-8-7-9-20-2-28 10-12 23-21 36-25v-23c0-11 8-20 19-20s20 9 20 20v23c22 8 39 29 39 55 0 32-27 59-59 59z m481 312h-961c-11 0-20-9-20-19v-625-84-84-85-84c0-10 9-19 20-19h961c10 0 19 9 19 19v84 85 84 84 625c0 10-9 19-19 19z m-20-961h-922v45h922v-45z m0 84h-922v45h922v-45z m0 84h-922v45h922v-45z m0 84h-922v45h922v-45z m0 84h-922v586h922v-586z m-64 547h-118-558-117c-11 0-20-9-20-20v-117-234-117c0-11 9-20 20-20h117 558 118c10 0 19 9 19 20v117 234 117c0 11-9 20-19 20z m-774-39h76c-3-19-13-36-26-50-14-13-31-23-50-26v76z m0-430l0 0v76c19-3 36-13 50-26 13-14 23-31 26-50h-76z m116 0c-4 29-18 56-39 77-21 21-48 35-77 39v79h59c10 0 19 9 19 20s-9 20-19 20h-59v79c29 4 56 18 77 39 21 21 35 48 39 77h167c-12-11-23-24-33-38-31-48-49-111-49-177 0-66 18-129 49-177 10-14 21-27 33-38h-167z m261 0c-35 0-68 21-94 60-28 41-43 96-43 155s15 114 43 155c26 39 59 60 94 60 35 0 69-21 94-60 28-41 43-96 43-155s-15-114-43-155c-25-39-59-60-94-60z m377 0h-76c4 19 13 36 26 50 14 13 31 23 50 26v-76z m0 235h-59c-10 0-19-9-19-20s9-20 19-20h59v-79c-29-4-56-18-77-39-21-21-35-48-39-77h-167c12 11 23 24 33 38 31 48 49 111 49 177s-18 129-49 177c-10 14-21 27-33 38h167c9-60 56-107 116-116v-79z m0 119c-38 7-68 38-76 76h76v-76z" horiz-adv-x="1000" />

<glyph glyph-name="039-gold" unicode="&#xe826;" d="M999 64l-69 171c-9 22-30 37-54 37h-44l-64 158c-9 23-30 37-54 37h-44l-64 159c-9 22-30 37-54 37h-104c-24 0-45-15-54-37l-63-159h-45c-24 0-45-14-54-37l-64-158h-44c-24 0-45-15-54-37l-69-171c-2-6-1-13 2-18 4-5 10-8 17-8h324 312 325c6 0 12 3 16 8 3 5 4 12 2 18z m-285 364c8 0 15-5 18-12l58-144h-261l57 144c3 7 11 12 19 12h51 58z m-214-123l-49 123h98l-49-123z m-70 306c3 8 10 12 18 12h104c8 0 15-4 18-12l57-144h-232-22l57 144z m-162-195c3 7 10 12 18 12h109c9 0 16-5 19-12l57-144h-260l57 144z m-220-339l58 144c3 7 10 12 18 12h58 51c8 0 16-5 19-12 0-1 0-1 0-1l62-143h-266z m295 31l-54 125h104l-50-125z m30-31l57 144c3 7 10 12 18 12h52 52c8 0 15-5 18-12l57-144h-254z m234 156h104l-54-125-50 125z m79-156l62 143c0 0 1 0 1 1 3 7 10 12 18 12h51 58c8 0 15-5 18-12l58-144h-266z m-166 507h-39c-11 0-20-8-20-19s9-20 20-20h39c10 0 19 9 19 20s-9 19-19 19z" horiz-adv-x="1000" />

<glyph glyph-name="040-card" unicode="&#xe827;" d="M500-27c-11 0-19-9-19-20 0-10 8-19 19-19s20 9 20 19c0 11-9 20-20 20z m-78 670c-11 0-20-9-20-20s9-19 20-19 19 9 19 19-8 20-19 20z m273-670h-117c-11 0-19-9-19-20s8-19 19-19h117c11 0 20 9 20 19s-9 20-20 20z m-195 799c-11 0-19-9-19-20v-129c0-10 8-19 19-19s20 9 20 19v129c0 11-9 20-20 20z m-78 0c-11 0-20-9-20-20v-45c0-10 9-19 20-19s19 9 19 19v45c0 11-8 20-19 20z m469 39h-258c-8 23-29 39-55 39h-312c-26 0-47-16-56-39h-101c-32 0-58-26-58-59v-799c0-32 26-58 58-58h293v-26c0-10 9-19 20-19h351c11 0 20 9 20 19v26h98c32 0 58 26 58 58v799c0 33-26 59-58 59z m-286-393c0 0 0-1 1-1 0 0 0 0 0 0 1-1 1-1 1-1 1 0 1 0 1 0 0 0 1-1 1-1 0 0 0 0 1 0 0 0 0 0 1 0 0-1 0-1 1-1 0 0 0 0 0 0 1 0 1 0 1 0 1 0 1 0 2 0 0 0 0-1 0-1 2 0 3 0 4 0 0 0 1 1 1 1 0 0 1 0 1 0 0 0 1 0 1 0 0 0 1 0 1 0 0 0 1 0 1 1 0 0 0 0 1 0 0 0 0 0 1 0 0 0 0 1 0 1 1 0 1 0 1 0 0 0 1 0 1 1 0 0 1 0 1 0 0 0 0 1 1 1 0 0 1 1 1 1 0 0 0 0 0 0 0 0 0 0 0 0 1 1 1 1 1 2 1 0 1 0 1 0 0 1 0 1 0 1 1 0 1 1 1 1 0 0 0 0 0 1 1 0 1 0 1 1 0 0 0 0 0 0 0 1 0 1 1 1 0 1 0 1 0 1 0 1 0 1 0 1 0 0 0 1 0 1 0 0 1 1 1 1 0 0 0 1 0 1 0 1 0 1 0 2 0 0 0 0 0 0v168c71-69 97-157 97-217 0-37 0-75-10-127 0 0 0-1 0-1-7-38-11-79-11-122v-83h-231v49c0 0 0 0 0 0 0 15-7 29-18 41l-12 11c-27 27-43 63-46 100h128c11-32 27-61 48-88 4-4 10-7 16-7 4 0 8 1 12 4 8 7 10 19 3 28-21 26-36 56-45 88-6 22-9 44-9 66 0 0 0 1 0 3-1 5-3 10-6 13l-120 120c-7 7-11 17-11 27s4 21 11 28c8 7 18 11 28 11s20-4 28-11l114-115c1 0 1-1 2-1z m-261 393h234c11 0 20-9 20-20v-311l-82 82c-15 14-34 22-55 22-21 0-40-8-55-22-15-15-23-35-23-56s8-40 23-55l114-114c0-15 2-30 4-46h-180v520z m-98-20c0 11 9 20 20 20h39v-520h-39c-11 0-20 9-20 20v480z m-156-39c0 11 9 20 19 20h98v-45h-117v25z m312-818h-293c-10 0-19 9-19 19v20h312v-39z m0 98v-20h-312v676h117v-377c0-32 26-59 59-59h101c3-47 23-93 57-127l12-12c4-4 7-9 7-13v-49h-21c-11 0-20-9-20-19z m352-143h-313v123h313v-123z m156 64c0-10-9-19-19-19h-98v39h117v-20z m0 59h-117v20c0 10-9 19-20 19h-21v83c0 40 3 78 10 114 0 0 0 1 0 1 11 56 11 96 11 135 0 78-36 189-136 269v35h273v-676z m0 715h-273v45h254c10 0 19-9 19-20v-25z" horiz-adv-x="1000" />

<glyph glyph-name="041-money-2" unicode="&#xe828;" d="M383 733c-11 0-20-9-20-20s9-19 20-19 19 9 19 19-8 20-19 20z m117-156c-11 0-19 8-19 19 0 11 8 20 19 20 7 0 14-4 21-11 8-7 20-7 28 1 7 8 7 20-1 28-10 9-19 15-28 18v22c0 11-9 20-20 20-11 0-19-9-19-20v-23c-23-8-40-29-40-55 0-32 27-58 59-58 11 0 20-9 20-20 0-11-9-20-20-20-8 0-17 6-25 15-7 9-20 10-28 3-8-7-9-20-2-28 10-12 23-21 36-25v-23c0-11 8-20 19-20 11 0 20 9 20 20v23c22 8 39 30 39 55 0 32-27 59-59 59z m422-12c-43 0-78-35-78-78v-139c-26 6-55-1-75-21l-131-131c-18-18-29-43-29-69v-115h-19c-11 0-20-9-20-19v-124c0-10 9-19 20-19h273c11 0 20 9 20 19v124c0 10-9 19-20 19h-19v9c0 6 2 11 6 14l121 122c19 19 29 43 29 69v261c0 43-35 78-78 78z m-78-676h-235v84h235v-84z m117 337c0-15-6-30-17-41l-122-122c-11-11-17-26-17-42v-9h-157v115c0 16 7 30 18 42l131 131c14 14 38 15 53 1 0 0 0 0 1 0 0-1 0-1 1-1 7-8 11-18 11-28s-4-20-11-28l-97-97c-8-7-8-20 0-27 7-8 20-8 27 0l98 97c14 14 22 34 22 55 0 19-7 37-19 52v163c0 21 17 39 39 39s39-18 39-39v-261z m-551-214h-19v115c0 26-10 51-29 69l-131 131c-20 20-49 27-75 21v139c0 43-35 78-78 78-43 0-78-35-78-78v-261c0-26 10-50 29-69l122-122c3-3 5-8 5-14v-9h-19c-11 0-20-9-20-19v-124c0-10 9-19 20-19h273c11 0 20 9 20 19v124c0 10-9 19-20 19z m-354 173c-11 11-17 26-17 41v261c0 21 18 39 39 39s39-18 39-39v-163c-12-15-19-33-19-52 0-21 8-41 23-55l97-98c8-8 20-8 28 0 8 8 8 20 0 28l-98 97c-7 8-11 17-11 28s4 20 11 28c1 0 1 0 1 1l1 0c15 14 39 13 53-1l131-131c12-12 18-26 18-42v-115h-157v9c0 16-6 31-17 42l-122 122z m335-296h-235v84h235v-84z m109 961c-161 0-293-131-293-293s132-293 293-293 293 132 293 293-131 293-293 293z m0-547c-140 0-254 114-254 254s114 254 254 254 254-114 254-254-114-254-254-254z m135 421c-51 41-117 57-183 43-10-2-17-13-15-23 3-11 13-18 24-15 53 11 108-1 149-35 42-34 66-84 66-137 0-97-79-176-176-176-97 0-176 79-176 176 0 29 7 58 21 83 5 10 2 21-8 27-9 5-21 1-26-8-17-31-26-67-26-102 0-118 97-215 215-215s215 97 215 215c0 65-29 126-80 167z" horiz-adv-x="1000" />

<glyph glyph-name="042-money-1" unicode="&#xe829;" d="M344 643c-11 0-20-9-20-20s9-19 20-19 19 9 19 19-8 20-19 20z m195-273h-19v78h19c11 0 20-9 20-20 0-11 8-19 19-19 11 0 20 8 20 19 0 32-27 59-59 59h-19v19c0 11-9 20-20 20-11 0-19-9-19-20v-19h-20c-32 0-59-27-59-59v-39c0-32 27-58 59-58h20v-79h-20c-11 0-20 9-20 20 0 11-8 19-19 19-11 0-20-8-20-19 0-32 27-59 59-59h20v-19c0-11 8-20 19-20 11 0 20 9 20 20v19h19c32 0 59 27 59 59v39c0 32-27 59-59 59z m-58 0h-20c-11 0-20 8-20 19v39c0 11 9 20 20 20h20v-78z m78-98c0-11-9-20-20-20h-19v79h19c11 0 20-9 20-20v-39z m-59 332c-140 0-254-114-254-254s114-254 254-254 254 114 254 254-114 254-254 254z m0-469c-118 0-215 97-215 215s97 215 215 215 215-96 215-215-96-215-215-215z m481 235h-65c-3 48-14 95-33 141-21 49-52 93-90 132-39 38-83 69-132 90-46 19-93 30-141 33v65c0 10-9 19-20 19-11 0-19-9-19-19v-65c-49-3-96-14-141-33-50-21-94-52-133-90-38-39-68-83-90-132-19-46-30-93-32-141h-65c-11 0-20-9-20-20 0-11 9-19 20-19h65c2-49 13-96 32-141 22-50 52-94 90-133 39-38 83-69 133-90 45-19 92-30 141-33v-65c0-10 8-19 19-19 11 0 20 9 20 19v65c48 3 95 14 141 33 49 21 93 52 132 90 38 39 69 83 90 133 19 45 30 92 33 141h65c10 0 19 8 19 19s-9 20-19 20z m-500-396c-190 10-347 167-357 357h45c9-168 144-303 312-312v-45z m19 83c-161 0-293 132-293 293 0 80 32 155 89 211 8 7 8 20 1 27-8 8-20 8-28 1-60-59-96-136-100-219h-45c10 189 167 346 357 356v-45c-24-1-47-5-69-11-11-3-17-13-14-24 3-10 14-16 24-13 25 6 52 10 78 10 162 0 293-131 293-293s-131-293-293-293z m20-83v45c167 9 302 144 311 312h45c-10-190-167-347-356-357z m311 396c-9 167-144 302-311 311v45c189-10 346-167 356-356h-45z" horiz-adv-x="1000" />

<glyph glyph-name="043-stamp" unicode="&#xe82a;" d="M344 90c-11 0-20-8-20-19 0-11 9-20 20-20s19 9 19 20c0 11-8 19-19 19z m547-78h-21c-10 88-84 156-175 156h-75c0 44 4 91 11 136 1 2 1 5 1 7 0 0 0 1 0 1 7 43 17 84 29 122 4 11 7 21 11 31l26 65c11 30 17 58 17 85v1c0 129-96 234-215 234s-215-105-215-234v-1c0-27 6-55 17-85l26-66c4-10 8-20 11-30 12-38 22-79 29-122 0 0 0-1 0-1 0-3 0-5 1-7 7-45 11-92 11-136h-75c-47 0-91-18-125-51-28-29-46-65-50-105h-21c-32 0-58-26-58-59v-44c0-33 26-59 58-59h782c32 0 58 26 58 59v44c0 33-26 59-58 59z m-520 447c-2 7-4 13-6 19l-26 67c-10 25-15 48-15 70v1c0 107 79 195 176 195 97 0 176-88 176-195v-1c0-22-5-45-15-70l-25-66c-3-6-5-13-7-20h-258z m34-128c-6 31-13 61-21 89h232c-8-28-15-58-20-89h-191z m185-40c-6-41-9-83-9-123h-162c0 40-3 82-8 123h179z m-382-202c26 26 60 40 97 40h390c69 0 126-51 136-117h-662c5 29 18 56 39 77z m702-180c0-11-9-20-19-20h-782c-10 0-19 9-19 20v44c0 11 9 20 19 20h39 704 39c10 0 19-9 19-20v-44z m-254 181h-234c-11 0-20-8-20-19s9-20 20-20h234c11 0 20 9 20 20s-9 19-20 19z" horiz-adv-x="1000" />

<glyph glyph-name="044-bank" unicode="&#xe82b;" d="M617 694c-11 0-19-9-19-20s8-19 19-19c11 0 20 8 20 19s-9 20-20 20z m-234 0c-11 0-20-9-20-20s9-19 20-19 19 8 19 19-8 20-19 20z m-240-727c-11 0-20-9-20-19 0-11 9-20 20-20s19 9 19 20c0 10-9 19-19 19z m798 375c11 0 20 9 20 20v58h20c10 0 19 9 19 20v39c0 28-20 51-46 57l-107 204c-10 20-30 32-53 32h-128c-41 50-101 78-166 78-65 0-125-28-166-78h-128c-22 0-42-12-52-32l-108-204c-26-6-46-29-46-57v-39c0-11 9-20 20-20h19v-58c0-11 9-20 20-20h19v-213h-19c-11 0-20-8-20-19v-76c-13-9-21-23-24-40l-15-122c-1-6 1-11 5-15 4-5 9-7 15-7h961c5 0 10 2 14 7 4 4 6 9 5 15l-15 122c-2 17-11 31-24 40v76c0 11-9 19-20 19h-19v213h19z m-753 380c0 0 0 0 0 0 4 7 10 11 18 11h103c-13-24-20-51-23-78h-65c-11 0-20-9-20-20s9-19 20-19h84c11 0 19 8 19 19 0 39 12 75 35 106 34 44 85 70 141 70s107-26 141-70c23-31 35-67 35-106 0-11 9-19 19-19h84c11 0 20 8 20 19s-9 20-20 20h-65c-2 27-10 54-23 78h103c8 0 14-4 18-11 0 0 0 0 0 0l97-184h-818l97 184z m-149-263v20c0 11 9 19 20 19h882c11 0 20-8 20-19v-20h-922z m863-369h20v-45h-123v45h19 84z m-64 39v213h45v-213h-45z m-39 0h-20c-10 0-19-8-19-19v-65h-45v65c0 11-9 19-20 19h-19v213h19c11 0 20 9 20 20v58h45v-58c0-11 9-20 19-20h20v-213z m-338 0h-20v213h20c11 0 20 9 20 20v58h39v-58c0-11 8-20 19-20h20v-213h-20c-11 0-19-8-19-19v-65h-39v65c0 11-9 19-20 19z m-240 0h-20v213h20c11 0 19 9 19 20v58h45v-58c0-11 9-20 20-20h19v-213h-19c-11 0-20-8-20-19v-65h-45v65c0 11-8 19-19 19z m-123 252h-20v39h123v-39h-19-84z m64-39v-213h-45v213h45z m162-252h20 78 19v-45h-117v45z m39 39v213h39v-213h-39z m-39 252v39h117v-39h-117z m235-291h19 78 20v-45h-117v45z m39 39v213h39v-213h-39z m-39 252v39h117v-39h-117z m-481-291h20 84 19v-45h-123v45z m848-84c10 0 19-7 20-17l12-100h-916l12 100c1 10 10 17 20 17h852z m-127 375v39h123v-39h-123z m-299 352c-32 0-59-26-59-59s27-58 59-58 59 26 59 58-27 59-59 59z m0-78c-11 0-19 8-19 19s8 20 19 20c11 0 20-9 20-20s-9-19-20-19z m357-688h-636c-11 0-20-9-20-19s9-20 20-20h636c11 0 20 9 20 20s-9 19-20 19z" horiz-adv-x="1000" />

<glyph glyph-name="045-money" unicode="&#xe82c;" d="M449 280c-11 0-19-9-19-20 0-11 8-19 19-19s20 8 20 19c0 11-9 20-20 20z m-234 0c-11 0-20-9-20-20 0-11 9-19 20-19s19 8 19 19c0 11-8 20-19 20z m117 0c-11 0-19 8-19 19 0 11 8 20 19 20 7 0 14-4 21-10 8-8 20-8 28 0 7 8 7 20-1 28-10 9-19 15-28 18v22c0 11-9 20-20 20-11 0-19-9-19-20v-22c-23-9-40-30-40-56 0-32 27-58 59-58 11 0 20-9 20-20 0-11-9-19-20-19-8 0-17 5-25 14-7 9-20 10-28 3-8-7-9-19-2-28 10-12 23-21 36-25v-23c0-11 8-20 19-20s20 9 20 20v23c22 8 39 30 39 55 0 32-27 59-59 59z m525 117c-70 0-142-29-142-78v-102c-14 8-31 14-51 18v25c0 64-18 127-51 183-34 56-80 100-134 127-6 3-10 8-10 14v28c44 9 78 48 78 95 0 11-9 20-20 20s-19-9-19-20c0-27-18-49-43-56-5 12-14 22-25 29l65 101c3 5 4 10 2 16-1 5-5 9-10 12l-78 39c-6 3-12 3-18 0l-69-35-69 35c-6 3-12 3-18 0l-78-39c-5-3-9-7-10-12s-1-11 2-16l65-101c-11-7-20-17-24-29-25 7-44 29-44 56 0 11-8 20-19 20s-20-9-20-20c0-47 34-86 78-95v-28c0-6-3-11-9-14-55-27-101-71-135-127-33-56-51-119-51-183v-273c0-76 61-137 137-137h445c2 0 4 0 6 1 8-1 16-1 23-1 48 0 97 14 123 38 27-24 76-38 123-38 71 0 143 29 143 78v391c0 49-72 78-143 78z m-653 387l50 25 69-35c6-3 12-3 18 0l69 35 50-25-61-96h-134l-61 96z m226-155v-25h-196v25c0 11 9 20 20 20h156c0 0 0 0 0 0 0 0 0 0 0 0 11 0 20-9 20-20z m-293-740c-54 0-98 44-98 98v273c0 116 66 227 164 275 13 6 23 17 28 30h202c5-13 15-24 28-30 97-48 164-161 164-275v-20c-5 1-9 1-14 1-23 0-46-3-66-9 1 9 2 19 2 28 0 119-96 215-215 215s-215-96-215-215 97-215 215-215c51 0 99 18 137 49v-166c0-15 7-28 18-39h-350z m332 274v-13c-34-42-83-66-137-66-97 0-176 79-176 176 0 97 79 176 176 176 97 0 176-79 176-176 0-16-2-32-7-47-21-14-32-31-32-50z m246-235c0-15-45-39-104-39-9 0-18 1-26 2-48 5-77 25-77 37v24c27-15 66-24 103-24 38 0 76 9 104 24v-24z m0 78c0-15-45-39-104-39-59 0-103 24-103 39v24c27-15 66-24 103-24 38 0 76 9 104 24v-24z m0 78c0-15-45-39-104-39-59 0-103 24-103 39v24c27-15 66-24 103-24 38 0 76 9 104 24v-24z m-104 39c-59 0-103 24-103 40 0 6 8 14 20 21 21 11 52 18 83 18 10 0 20-1 30-2 48-7 74-26 74-37 0-16-45-40-104-40z m350-195c0-15-44-39-104-39-59 0-103 24-103 39v24c27-15 66-24 103-24 38 0 77 9 104 24v-24z m0 78c0-15-44-39-104-39-59 0-103 24-103 39v24c27-15 66-24 103-24 38 0 77 9 104 24v-24z m0 78c0-15-44-39-104-39-59 0-103 24-103 39v24c27-15 66-24 103-24 38 0 77 9 104 24v-24z m0 79c0-16-44-40-104-40-59 0-103 24-103 40v23c27-15 66-23 103-23 38 0 77 8 104 23v-23z m0 78c0-16-44-39-104-39-59 0-103 23-103 39v24c27-16 66-24 103-24 38 0 77 8 104 24v-24z m-104 39c-59 0-103 23-103 39s44 39 103 39c60 0 104-24 104-39s-44-39-104-39z" horiz-adv-x="1000" />

<glyph glyph-name="046-law" unicode="&#xe82d;" d="M500 772c-11 0-19-9-19-20s8-19 19-19 20 9 20 19-9 20-20 20z m0-682c-11 0-19-8-19-19 0-11 8-20 19-20s20 9 20 20c0 11-9 19-20 19z m0 325c-11 0-19-9-19-20v-240c0-11 8-20 19-20 11 0 20 9 20 20v240c0 11-9 20-20 20z m483 114c11 11 17 26 17 42 0 32-26 58-59 58h-339c-2 2-3 5-4 7v116c0 54-44 98-98 98s-98-44-98-98v-116c-1-2-2-5-3-7h-340c-16 0-31-6-42-17-11-11-17-26-17-41 0-33 26-59 59-59h87l-105-232c0 0 0 0 0 0-1-2-1-3-2-5 0 0 0 0 0 0 0-1 0-1 0-2 0 0 0 0 0-1 0 0 0 0 0 0 0-75 61-137 137-137 47 0 90 24 115 63 14 22 22 48 22 74 0 0 0 0 0 0 0 1 0 1-1 1 0 1 0 1 0 2 0 0 0 0 0 0 0 2-1 3-1 5 0 0 0 0 0 0l-105 232h193c1-2 2-4 3-6v-494h-254c-53 0-97-44-97-98v-45c0-10 9-19 19-19h860c11 0 19 9 19 19v45c0 54-44 98-97 98h-254v494c1 2 2 4 4 6h192l-105-232c0 0 0 0 0 0 0-2-1-3-1-5 0 0 0 0 0 0 0-1 0-1 0-2 0 0 0 0 0-1 0 0 0 0 0 0 0-75 61-137 136-137 47 0 90 24 115 63 14 22 22 48 22 74 0 0 0 0 0 0 0 1 0 1 0 1 0 1 0 1 0 2 0 0 0 0 0 0-1 2-1 3-2 5 0 0 0 0 0 0l-104 232h86c16 0 31 6 42 17z m-725-310c-18-28-49-45-82-45-47 0-87 34-96 78h192c-3-11-7-23-14-33z m5 72h-174l87 193 87-193z m122 260h-326c-11 0-20 9-20 20 0 5 2 10 6 14 4 3 8 5 14 5h326c-2-6-2-13-2-19s0-13 2-20z m56 201c0 33 27 59 59 59s59-26 59-59v-80c-18 10-38 16-59 16-21 0-41-6-59-16v80z m-13-150c3 6 6 11 10 16 14 19 37 31 62 31s48-12 63-31c3-5 6-10 9-16 4-10 6-20 6-31s-2-22-6-31c-3-6-6-11-9-16-15-20-38-31-63-31-25 0-48 11-62 31-4 5-7 10-10 16-4 9-6 20-6 31s2 21 6 31z m131-133v-457h-118v457c18-10 38-15 59-15 21 0 41 5 59 15z m293-496c32 0 58-26 58-59v-25h-820v25c0 33 26 59 58 59h704z m54 246c-18-28-48-45-82-45-47 0-86 34-95 78h191c-2-11-7-23-14-33z m5 72h-174l87 193 87-193z m-295 260c1 7 1 13 1 20s0 13-1 19h325c11 0 20-8 20-19 0-5-2-10-6-14-3-4-8-6-14-6h-325z" horiz-adv-x="1000" />

<glyph glyph-name="047-atm" unicode="&#xe82e;" d="M383 409c-11 0-20-9-20-20s9-19 20-19 19 8 19 19-8 20-19 20z m-78-436c-11 0-20-9-20-20 0-10 9-19 20-19s19 9 19 19c0 11-8 20-19 20z m625-84h-59v824c0 33-26 59-58 59h-20v19c0 33-26 59-59 59h-468c-33 0-59-26-59-59v-19h-19c-33 0-59-26-59-59v-824h-59c-10 0-19-9-19-20s9-19 19-19h860c11 0 19 9 19 19s-8 20-19 20z m-723 0h-39v824c0 11 9 20 20 20h19v-844z m547 0h-508v209h508v-209z m0 248h-508v434h508v-434z m0 473h-508v181c0 11 9 20 20 20h468c11 0 20-9 20-20v-181z m78-721h-39v844h20c10 0 19-9 19-20v-824z m-293 520h-78c-11 0-20-9-20-20s9-19 20-19h78c11 0 20 8 20 19s-9 20-20 20z m156 117h-390c-11 0-20-9-20-20v-234c0-11 9-20 20-20h390c11 0 20 9 20 20v234c0 11-9 20-20 20z m-97-235h-274v196h274v-196z m78 0h-39v40h39v-40z m0 79h-39v40h39v-40z m0 79h-39v38h39v-38z m-59-236h-234c-11 0-20-8-20-19s9-20 20-20h234c11 0 20 9 20 20s-9 19-20 19z m39 559h-312c-11 0-20-9-20-20v-78c0-11 9-19 20-19h312c11 0 20 8 20 19v78c0 11-9 20-20 20z m-19-78h-274v39h274v-39z" horiz-adv-x="1000" />

<glyph glyph-name="048-banking" unicode="&#xe82f;" d="M344 331c-11 0-20-9-20-20 0-11 9-20 20-20s19 9 19 20c0 11-8 20-19 20z m39-364h-117c-11 0-20-9-20-19s9-20 20-20h117c11 0 19 9 19 20s-8 19-19 19z m558 637h-298v148c0 54-44 98-98 98h-447c-54 0-98-44-98-98v-804c0-54 44-98 98-98h447c54 0 98 44 98 98v148h298c33 0 59 26 59 59v390c0 33-26 59-59 59z m-337-656c0-33-27-59-59-59h-447c-33 0-59 26-59 59v804c0 33 26 59 59 59h447c32 0 59-26 59-59v-148h-39v103c0 11-9 20-20 20h-447c-11 0-20-9-20-20v-675c0-11 9-20 20-20h447c11 0 20 9 20 20v64h39v-148z m-299 148h220v-45h-408v637h408v-84h-220c-33 0-59-26-59-59v-390c0-33 26-59 59-59z m656 59c0-11-9-20-20-20h-636c-11 0-20 9-20 20v254h676v-254z m0 293h-676v39h676v-39z m0 78h-676v19c0 11 9 20 20 20h636c11 0 20-9 20-20v-19z m-123-176c-23 0-44-10-59-26-14 16-35 26-58 26-43 0-78-35-78-78 0-43 35-78 78-78 23 0 44 10 58 26 15-16 36-26 59-26 43 0 78 35 78 78 0 43-35 78-78 78z m-117-117c-22 0-39 17-39 39s17 39 39 39 39-18 39-39-18-39-39-39z m117 0c-22 0-39 17-39 39s17 39 39 39 39-18 39-39-18-39-39-39z m-254 98h-162c-11 0-20-9-20-20s9-20 20-20h162c11 0 20 9 20 20s-9 20-20 20z m0-79h-240c-11 0-20-8-20-19s9-20 20-20h240c11 0 20 9 20 20s-9 19-20 19z" horiz-adv-x="1000" />

<glyph glyph-name="049-cheque" unicode="&#xe830;" d="M371 168c-11 0-19-8-19-19 0-11 8-20 19-20s20 9 20 20c0 11-9 19-20 19z m-117 118h-20v78h20c11 0 19-9 19-20 0-11 9-19 20-19s20 8 20 19c0 32-27 59-59 59h-20v19c0 11-8 20-19 20s-20-9-20-20v-19h-19c-32 0-59-27-59-59v-39c0-32 27-58 59-58h19v-79h-19c-11 0-20 9-20 20 0 11-8 19-19 19s-20-8-20-19c0-32 27-59 59-59h19v-19c0-11 9-20 20-20s19 9 19 20v19h20c32 0 59 27 59 59v39c0 32-27 59-59 59z m-59 0h-19c-11 0-20 8-20 19v39c0 11 9 20 20 20h19v-78z m78-98c0-11-8-20-19-20h-20v79h20c11 0 19-9 19-20v-39z m668 383h-19v58c0 16-6 31-17 42-7 7-16 12-25 14-5 18-19 32-36 39v67c0 16-6 31-17 42-11 11-26 17-42 17-32 0-58-26-58-59v-67c-23-8-39-30-39-56v-97h-629c-33 0-59-27-59-59v-486c0-33 26-59 59-59h664l43-65 0-32c0-11 8-20 19-20 0 0 0 0 0 0 11 0 20 9 20 19l0 34 43 64h93c33 0 59 26 59 59v486c0 32-26 59-59 59z m-882-565c-11 0-20 9-20 20v486c0 11 9 20 20 20h629v-129h-317c-11 0-19-9-19-20s8-19 19-19h317v-78h-317c-11 0-19-9-19-20s8-19 19-19h317v-79h-239c-11 0-19-8-19-19s8-20 19-20h239v-50c0-24 5-50 13-73h-642z m785 623c0 11 9 20 19 20 6 0 10-2 14-6 4-4 6-8 6-14v-148h-39v148z m-78 162c0 11 8 20 19 20 5 0 10-2 14-6 4-3 6-8 6-14v-64h-39v64z m-39-123c0 11 8 20 19 20h78c6 0 11-2 14-6-14-6-25-18-30-33h-81v19z m0-58h78v-39h-78v39z m117-531c0-29-9-61-23-82 0 0 0 0 0 0l-36-53-35 53c0 0 0 0-1 0-13 21-22 53-22 82v11h117v-11z m0 50h-117v403h78v-110c0-25 16-47 39-55v-238z m0 293v20h39v-20c0-10-9-19-20-19-10 0-19 9-19 19z m117-396c0-11-9-20-20-20h-72c9 23 14 49 14 73v288c23 8 39 30 39 55v110h19c11 0 20-9 20-20v-486z m-176 338c-11 0-19-9-19-20v-156c0-11 8-20 19-20s20 9 20 20v156c0 11-9 20-20 20z" horiz-adv-x="1000" />

<glyph glyph-name="050-currency" unicode="&#xe831;" d="M545 409c-11 0-20-9-20-20s9-19 20-19c11 0 20 8 20 19s-9 20-20 20z m130 117c-3 84-40 164-102 226-64 63-148 98-235 98-183 0-338-155-338-338 0-87 35-171 97-235 62-63 142-99 228-102 7-178 158-325 337-325 183 0 338 155 338 338 0 179-147 330-325 338z m-350-312c-155 7-286 142-286 298 0 162 137 299 299 299 155 0 290-130 298-286-13-1-26-3-38-6-2 65-30 128-78 176-49 49-115 77-182 77s-133-28-182-77c-50-50-78-116-78-183s28-133 78-182c47-48 110-76 175-77-3-13-5-26-6-39z m13 77c-118 0-221 104-221 221 0 118 103 221 221 221s221-103 221-221c0-1 0-2 0-3-63-21-117-59-158-109-4 1-8 1-13-1-10-4-21-6-32-6-25 0-49 11-68 33-7 8-12 17-17 28h103c11 0 19 8 19 19s-8 20-19 20h-114c-1 5-1 11-1 17 0 7 0 15 1 22h114c11 0 19 8 19 19s-8 20-19 20h-101c4 8 9 16 15 23 19 21 43 33 68 33s50-12 68-33c7-8 20-9 28-2 8 7 9 19 2 27-26 30-60 47-98 47-37 0-71-17-97-47-12-14-22-30-29-48h-39c-10 0-19-9-19-20s9-19 19-19h30c-1-8-1-15-1-22 0-6 0-12 1-17h-30c-10 0-19-9-19-20s9-19 19-19h38c7-20 17-38 30-54 26-30 60-46 97-46 5 0 9 0 13 0-11-19-21-41-28-63-1 0-2 0-3 0z m324-402c-162 0-299 137-299 299 0 2 0 4 0 5 1 25 5 50 11 73 29 101 109 181 210 210 24 7 48 10 73 11 0 0 0 0 0 0 2 0 3 0 5 0 162 0 299-137 299-299s-137-299-299-299z m183 481c-50 50-116 78-183 78-15 0-30-2-45-4-11-2-18-12-16-23 2-11 12-18 23-16 12 2 25 4 38 4 118 0 221-103 221-221s-103-221-221-221-221 103-221 221c0 47 16 97 42 132 6 9 4 21-5 28-8 6-20 4-27-5-30-41-49-100-49-155 0-67 29-133 78-182 49-50 115-78 182-78 67 0 133 28 183 78 49 49 77 115 77 182 0 67-28 133-77 182z m-144-163h-19v79h19c11 0 20-9 20-20 0-11 8-19 19-19s20 8 20 19c0 32-26 59-59 59h-19v19c0 11-9 20-20 20s-19-9-19-20v-19h-20c-32 0-58-27-58-59v-39c0-32 26-59 58-59h20v-78h-20c-11 0-19 9-19 20 0 11-9 19-20 19s-19-8-19-19c0-32 26-59 58-59h20v-19c0-11 8-20 19-20s20 9 20 20v19h19c33 0 59 27 59 59v39c0 32-26 58-59 58z m-58 0h-20c-11 0-19 9-19 20v39c0 11 8 20 19 20h20v-79z m78-97c0-11-9-20-20-20h-19v78h19c11 0 20-8 20-19v-39z m-26 689h-39c-10 0-19-8-19-19s9-20 19-20h39c11 0 20 9 20 20s-9 19-20 19z m118 0h-40c-10 0-19-8-19-19s9-20 19-20h40c10 0 19 9 19 20s-9 19-19 19z m117-234c-11 0-20-9-20-20v-39c0-10 9-19 20-19s19 9 19 19v39c0 11-8 20-19 20z m0 117c-11 0-20-9-20-19v-40c0-10 9-19 20-19s19 9 19 19v40c0 10-8 19-19 19z m-39 117c-11 0-20-8-20-19s9-20 20-20c10 0 19-9 19-19 0-11 9-20 20-20s19 9 19 20c0 32-26 58-58 58z m-547-859h-39c-11 0-20-9-20-20s9-19 20-19h39c11 0 19 8 19 19s-8 20-19 20z m-117 0h-39c-11 0-20-9-20-20s9-19 20-19h39c10 0 19 8 19 19s-9 20-19 20z m-157 273c-10 0-19-8-19-19v-39c0-11 9-20 19-20s20 9 20 20v39c0 11-9 19-20 19z m0-117c-10 0-19-9-19-19v-39c0-11 9-20 19-20s20 9 20 20v39c0 10-9 19-20 19z m39-156c-10 0-19 9-19 19 0 11-9 20-20 20s-19-9-19-20c0-32 26-58 58-58 11 0 20 8 20 19s-9 20-20 20z" horiz-adv-x="1000" />
</font>
</defs>
</svg>
